Results 1 to 1 of 1
  1. #1
    Landed To DesiRulez www.desirulez.net
    Join Date
    Apr 2011
    Posts
    11

    T

    Post Aarakshan ~ 2011 SCAM RIP |CLEAN-VIDEO| XviD 1CD RIP [TDT] - SAIF

    Follow us on Social Media







    Aarakshan ~ 2011 SCAM RIP |CLEAN-VIDEO| XviD 1CD RIP [TDT] - SAIF





























































    Code:
    Format                           : AVI
    Format/Info                      : Audio Video Interleave
    File size                        : 697 MiB
    Duration                         : 2h 32mn
    Overall bit rate                 : 641 Kbps
    Writing library                  : VirtualDub build 32842/release
    
    Video
    ID                               : 0
    Format                           : MPEG-4 Visual
    Format profile                   : Advanced [email protected]
    Format settings, BVOP            : 2
    Format settings, QPel            : No
    Format settings, GMC             : No warppoints
    Format settings, Matrix          : Default (H.263)
    Codec ID                         : XVID
    Codec ID/Hint                    : XviD
    Duration                         : 2h 32mn
    Bit rate                         : 536 Kbps
    Width                            : 560 pixels
    Height                           : 240 pixels
    Display aspect ratio             : 2.35:1
    Frame rate                       : 23.976 fps
    Color space                      : YUV
    Chroma subsampling               : 4:2:0
    Bit depth                        : 8 bits
    Scan type                        : Progressive
    Compression mode                 : Lossy
    Bits/(Pixel*Frame)               : 0.166
    Stream size                      : 583 MiB (84%)
    Writing library                  : XviD 1.2.1 (UTC 2008-12-04)
    
    Audio
    ID                               : 1
    Format                           : MPEG Audio
    Format version                   : Version 1
    Format profile                   : Layer 3
    Mode                             : Joint stereo
    Codec ID                         : 55
    Codec ID/Hint                    : MP3
    Duration                         : 2h 32mn
    Bit rate mode                    : Constant
    Bit rate                         : 96.0 Kbps
    Channel(s)                       : 2 channels
    Sampling rate                    : 32.0 KHz
    Compression mode                 : Lossy
    Stream size                      : 104 MiB (15%)
    Alignment                        : Split accross interleaves
    Interleave, duration             : 42 ms (1.00 video frame)
    Interleave, preload duration     : 500 ms
    Writing library                  : LAME3.98r
    Encoding settings                : -m j -V 4 -q 2 -lowpass 15.1 -b 96









    Code:
    http://www.sendspace.com/file/zzu2bb









    Single Links:

    Code:
    http://www.filefactory.com/file/cd10beb/n/Khan.BiGG_BoSS.avi
    OR
    http://www.fileserve.com/file/n7Gh6vk/Khan.BiGG_BoSS.avi
    OR
    http://ul.to/u3e9l95z/Khan.BiGG_BoSS.avi
    OR
    http://www.easy-share.com/1917553803/Khan.BiGG_BoSS.avi
    OR
    http://pyramidfiles.com/6md7w0ikvh8e/Khan.BiGG_BoSS.avi.html
    OR
    http://www.filesonic.com/file/1706493171/Khan.BiGG_BoSS.avi





    Split Links:

    Code:
    http://www.filefactory.com/file/cd10a52/n/Khan.BiGG_BoSS.avi.001
    http://www.filefactory.com/file/cd10a63/n/Khan.BiGG_BoSS.avi.002
    http://www.filefactory.com/file/c1dd61a/n/Khan.BiGG_BoSS.avi.003
    http://www.filefactory.com/file/cd10a3f/n/Khan.BiGG_BoSS.avi.004
    Code:
    http://www.fileserve.com/file/Ex48wMf/Khan.BiGG_BoSS.avi.001
    http://www.fileserve.com/file/wnsM2Hw/Khan.BiGG_BoSS.avi.002
    http://www.fileserve.com/file/84acrsm/Khan.BiGG_BoSS.avi.003
    http://www.fileserve.com/file/zEzYU92/Khan.BiGG_BoSS.avi.004
    Code:
    http://ul.to/l0w480j7/Khan.BiGG_BoSS.avi.001
    http://ul.to/je6pfhrp/Khan.BiGG_BoSS.avi.002
    http://ul.to/1ihpzrne/Khan.BiGG_BoSS.avi.003
    http://ul.to/jm7df1xp/Khan.BiGG_BoSS.avi.004
    Code:
    http://www.easy-share.com/1917553762/Khan.BiGG_BoSS.avi.001
    http://www.easy-share.com/1917553770/Khan.BiGG_BoSS.avi.002
    http://www.easy-share.com/1917553792/Khan.BiGG_BoSS.avi.003
    http://www.easy-share.com/1917553767/Khan.BiGG_BoSS.avi.004
    Code:
    http://www.enterupload.com/qxalgr4e4b84/Khan.BiGG_BoSS.avi.001.html
    http://www.enterupload.com/0oe9u0njn2e9/Khan.BiGG_BoSS.avi.002.html
    http://www.enterupload.com/umdtkpm710w6/Khan.BiGG_BoSS.avi.003.html
    http://www.enterupload.com/0z2ij61xx75o/Khan.BiGG_BoSS.avi.004.html
    Code:
    http://pyramidfiles.com/lgqlk3pcsx36/Khan.BiGG_BoSS.avi.001.html
    http://pyramidfiles.com/g9dvbhdcrizm/Khan.BiGG_BoSS.avi.002.html
    http://pyramidfiles.com/nr0xacwlnyk1/Khan.BiGG_BoSS.avi.003.html
    http://pyramidfiles.com/qzxoo8b57uv2/Khan.BiGG_BoSS.avi.004.html
    Code:
    http://www.filesonic.com/file/1706406464/Khan.BiGG_BoSS.avi.001
    http://www.filesonic.com/file/1706406534/Khan.BiGG_BoSS.avi.002
    http://www.filesonic.com/file/1706406454/Khan.BiGG_BoSS.avi.003
    http://www.filesonic.com/file/1706394624/Khan.BiGG_BoSS.avi.004

 

 

Posting Permissions

  • You may not post new threads
  • You may not post replies
  • You may not post attachments
  • You may not edit your posts
  •