Results 1 to 2 of 2
  1. #1
    dR Rockers www.desirulez.net
    Join Date
    Aug 2011
    Posts
    5,859

    T

    Default Kareeb {1998} - 700MB - 1CD - DvDRip - x264 - snaink - {DUS}

    Follow us on Social Media











    Kareeb (1998)

    ************************************************** ***************
    Kareeb (1998) - 1 CD Dvdrip - x264 - snaink - DUS
    ************************************************** ***************








    Code:
    Code:
    Ripper                           : snaink
    Source                           : DVD 9 @ dhavalobarot007 of M2TV
    
    General
    Format                           : Matroska
    File size                        : 698 MiB
    Duration                         : 2h 36mn
    Overall bit rate                 : 625 Kbps
    Encoded date                     : UTC 2011-01-19 05:41:46
    
    Video
    Format                           : AVC
    Format/Info                      : Advanced Video Codec
    Format profile                   : [email protected]
    Format settings, CABAC           : Yes
    Format settings, ReFrames        : 4 frames
    Muxing mode                      : Container [email protected]
    Codec ID                         : V_MPEG4/ISO/AVC
    Duration                         : 2h 36mn
    Bit rate                         : 528 Kbps
    Width                            : 688 pixels
    Height                           : 352 pixels
    Display aspect ratio             : 1.955
    Frame rate                       : 23.976 fps
    Color space                      : YUV
    Chroma subsampling               : 4:2:0
    Bit depth                        : 8 bits
    Scan type                        : Progressive
    Bits/(Pixel*Frame)               : 0.091
    Stream size                      : 577 MiB (83%)
    Writing library                  : x264 core 98 r1649 c54c47d
    
    Audio
    Format                           : AC-3
    Format/Info                      : Audio Coding 3
    Mode extension                   : CM (complete main)
    Codec ID                         : A_AC3
    Duration                         : 2h 36mn
    Bit rate mode                    : Constant
    Bit rate                         : 96.0 Kbps
    Channel(s)                       : 2 channels
    Channel positions                : Front: L R
    Sampling rate                    : 48.0 KHz
    Stream size                      : 107 MiB (15%)
    Language                         : Hindi


    Subtitles: English Muxed

    Cast:
    Bobby Deol ... Brij 'Birju' Kumar
    Neha ... Neha
    Abhay Chopra
    Moushumi Chatterjee ... Neha's Mother
    Johnny Lever ... Bighelaal
    Sushma Seth ... Lata (Mrs. Thakur Ranbir Singh)
    Gopi Desai
    Saurabh Shukla ... Birju's father (as Saurab Shukla)
    Vijayendra Ghatge ... Diwan Virendranath (as Vijendra Ghatge)
    Amit Phalke
    Manav Kaushik
    Shammi Kapoor ... Thakur Ranbir Singh
    Sandhya
    Abhijit Joshi
    Uday Chandra

    imdb Link: Kareeb (1998) - IMDb














    Code:
    http://www.fileserve.com/file/mMyCFpf/Kareeb(1998)[snaink].mkv
    Code:
    http://www.filesonic.com/file/1694336654/Kareeb(1998)[snaink].mkv
    Code:
    http://www.wupload.com/file/108197386/Kareeb(1998)[snaink].mkv

  2. #2

    Default

    thanks for the post

 

 

Posting Permissions

  • You may not post new threads
  • You may not post replies
  • You may not post attachments
  • You may not edit your posts
  •