Results 1 to 1 of 1
  1. #1
    dR Rockers www.desirulez.net
    Join Date
    Aug 2011
    Posts
    5,859

    T

    Default Tango Charlie (2005) - 1.37GB - 1/3 - DvDRip - XviD - Esub - 6 channels ( XMR )

    Follow us on Social Media











    Tango Charlie ( 2005 )










    Code:
    Ripper                           : Rahul
    Source                           : Drc
    Complete name                    : Tango Charlie ( 2005 )
    Format                           : AVI
    Format/Info                      : Audio Video Interleave
    File size                        : 1.37 GiB
    Duration                         : 2h 23mn
    Overall bit rate                 : 1 361 Kbps
    Writing application              : VirtualDubMod 1.5.10.3 | 
    
    Video
    ID                               : 0
    Format                           : MPEG-4 Visual
    Format profile                   : Advanced [email protected]
    Format settings, BVOP            : 2
    Format settings, QPel            : Yes
    Format settings, GMC             : No warppoints
    Format settings, Matrix          : Default (MPEG)
    Codec ID                         : XVID
    Codec ID/Hint                    : XviD
    Duration                         : 2h 23mn
    Bit rate                         : 968 Kbps
    Width                            : 704 pixels
    Height                           : 304 pixels
    Display aspect ratio             : 2.35:1
    Frame rate                       : 23.976 fps
    Color space                      : YUV
    Chroma subsampling               : 4:2:0
    Bit depth                        : 8 bits
    Scan type                        : Interlaced
    Scan order                       : Bottom Field First
    Compression mode                 : Lossy
    Bits/(Pixel*Frame)               : 0.189
    Stream size                      : 995 MiB (71%)
    Writing library                  : XviD 1.2.1 (UTC 2008-12-04)
    
    Audio
    ID                               : 1
    Format                           : AC-3
    Format/Info                      : Audio Coding 3
    Mode extension                   : CM (complete main)
    Codec ID                         : 2000
    Duration                         : 2h 23mn
    Bit rate mode                    : Constant
    Bit rate                         : 384 Kbps
    Channel(s)                       : 6 channels
    Channel positions                : Front: L C R, Side: L R, LFE
    Sampling rate                    : 48.0 KHz
    Bit depth                        : 16 bits
    Compression mode                 : Lossy
    Stream size                      : 395 MiB (28%)
    Alignment                        : Split accross interleaves
    Interleave, duration             : 42 ms (1.00 video frame)
    Interleave, preload duration     : 500 ms

    Synopsis





    Cast





















    SINGLE LINK

    Code:
    http://www.fileserve.com/file/WNMfJZH/Tango_Charlie_(_2005_)_DvD_-_2CD_-_Rip_-_Xvid_-_Esub_-_6_channels.avi
    Code:
    http://www.filesonic.com/file/1688679694/Tango Charlie ( 2005 ) DvD - 2CD - Rip - Xvid - Esub - 6 channels.avi
    Code:
    http://www.wupload.com/file/104606294/Tango Charlie ( 2005 ) DvD - 2CD - Rip - Xvid - Esub - 6 channels.avi


    450MB LINKS

    Code:
    http://www.fileserve.com/file/SdPFVYA/Tango_Charlie_(_2005_)_DvD_-_2CD_-_Rip_-_Xvid_-_Esub_-_6_channels.avi.001
    http://www.fileserve.com/file/PWYsAHy/Tango_Charlie_(_2005_)_DvD_-_2CD_-_Rip_-_Xvid_-_Esub_-_6_channels.avi.002
    http://www.fileserve.com/file/UwN5s6a/Tango_Charlie_(_2005_)_DvD_-_2CD_-_Rip_-_Xvid_-_Esub_-_6_channels.avi.003
    http://www.fileserve.com/file/Stw2tMY/Tango_Charlie_(_2005_)_DvD_-_2CD_-_Rip_-_Xvid_-_Esub_-_6_channels.avi.004
    http://www.fileserve.com/file/tFMc5Fn/Tango_Charlie_(_2005_)_DvD_-_2CD_-_Rip_-_Xvid_-_Esub_-_6_channels.idx
    http://www.fileserve.com/file/2QQqera/Tango_Charlie_(_2005_)_DvD_-_2CD_-_Rip_-_Xvid_-_Esub_-_6_channels.sub
    
    
    http://www.wupload.com/file/104599983/Tango Charlie ( 2005 ) DvD - 2CD - Rip - Xvid - Esub - 6 channels.avi.001
    http://www.wupload.com/file/104600252/Tango Charlie ( 2005 ) DvD - 2CD - Rip - Xvid - Esub - 6 channels.avi.002
    http://www.wupload.com/file/104591621/Tango Charlie ( 2005 ) DvD - 2CD - Rip - Xvid - Esub - 6 channels.avi.003
    http://www.wupload.com/file/104590877/Tango Charlie ( 2005 ) DvD - 2CD - Rip - Xvid - Esub - 6 channels.avi.004
    http://www.wupload.com/file/104590849/Tango Charlie ( 2005 ) DvD - 2CD - Rip - Xvid - Esub - 6 channels.idx
    http://www.wupload.com/file/104590844/Tango Charlie ( 2005 ) DvD - 2CD - Rip - Xvid - Esub - 6 channels.sub
    
    
    http://www.filesonic.com/file/1688668304/Tango Charlie ( 2005 ) DvD - 2CD - Rip - Xvid - Esub - 6 channels.avi.001
    http://www.filesonic.com/file/1688668284/Tango Charlie ( 2005 ) DvD - 2CD - Rip - Xvid - Esub - 6 channels.avi.002
    http://www.filesonic.com/file/1688668244/Tango Charlie ( 2005 ) DvD - 2CD - Rip - Xvid - Esub - 6 channels.avi.003
    http://www.filesonic.com/file/1688663024/Tango Charlie ( 2005 ) DvD - 2CD - Rip - Xvid - Esub - 6 channels.avi.004
    http://www.filesonic.com/file/1688663151/Tango Charlie ( 2005 ) DvD - 2CD - Rip - Xvid - Esub - 6 channels.idx
    http://www.filesonic.com/file/1688663281/Tango Charlie ( 2005 ) DvD - 2CD - Rip - Xvid - Esub - 6 channels.sub

 

 

Posting Permissions

  • You may not post new threads
  • You may not post replies
  • You may not post attachments
  • You may not edit your posts
  •