Results 1 to 1 of 1
  1. #1
    dR Rockers www.desirulez.net
    Join Date
    Aug 2011
    Posts
    5,859

    T

    Default Agni Sakshi ( 1996 ) - 1.42GB - DvDRip - AVC - x264 - 6 channels ( XMR )

    Follow us on Social Media











    Agni Sakshi ( 1996 )










    Ripper : Rahul
    Source : Drc
    Complete name : Agni Sakshi ( 1996 )
    Format : Matroska
    File size : 1.42 GiB
    Duration : 2h 21mn
    Overall bit rate : 1 432 Kbps
    Writing library : libmkv 0.6.4.1

    Video
    ID : 1
    Format : AVC
    Format/Info : Advanced Video Codec
    Format profile : [email protected]
    Format settings, CABAC : Yes
    Format settings, ReFrames : 4 frames
    Format settings, GOP : M=1, N=4
    Codec ID : V_MPEG4/ISO/AVC
    Duration : 2h 21mn
    Bit rate : 956 Kbps
    Nominal bit rate : 1 202 Kbps
    Width : 720 pixels
    Height : 384 pixels
    Display aspect ratio : 1.875
    Frame rate : 23.976 fps
    Color space : YUV
    Chroma subsampling : 4:2:0
    Bit depth : 8 bits
    Scan type : Progressive
    Bits/(Pixel*Frame) : 0.144
    Stream size : 971 MiB (67%)
    Writing library : x264 core 112

    Audio
    ID : 2
    Format : AC-3
    Format/Info : Audio Coding 3
    Mode extension : CM (complete main)
    Codec ID : A_AC3
    Duration : 2h 21mn
    Bit rate mode : Constant
    Bit rate : 448 Kbps
    Channel(s) : 6 channels
    Channel positions : Front: L C R, Side: L R, LFE
    Sampling rate : 48.0 KHz
    Bit depth : 16 bits
    Compression mode : Lossy
    Stream size : 455 MiB (31%)


    Synopsis





    Cast




















    SINGLE LINK
    Code:
    http://www.fileserve.com/file/wzxG7WE/Agni_Sakshi_(_1996_)_DvD_-_2CD_-_Rip_-_AVC_-_x264_-_6_channels.mkv
    Code:
    http://www.filesonic.com/file/1673544541/Agni Sakshi ( 1996 ) DvD - 2CD - Rip - AVC - x264 - 6 channels.mkv
    Code:
    http://www.wupload.com/file/96603787/Agni Sakshi ( 1996 ) DvD - 2CD - Rip - AVC - x264 - 6 channels.mkv

    450MB LINKS

    Code:
    http://www.fileserve.com/file/usnhumx/Agni_Sakshi_(_1996_)_DvD_-_2CD_-_Rip_-_AVC_-_x264_-_6_channels.mkv.001
    http://www.fileserve.com/file/WHgFGMR/Agni_Sakshi_(_1996_)_DvD_-_2CD_-_Rip_-_AVC_-_x264_-_6_channels.mkv.002
    http://www.fileserve.com/file/NKDgNCJ/Agni_Sakshi_(_1996_)_DvD_-_2CD_-_Rip_-_AVC_-_x264_-_6_channels.mkv.003
    http://www.fileserve.com/file/wry4CeN/Agni_Sakshi_(_1996_)_DvD_-_2CD_-_Rip_-_AVC_-_x264_-_6_channels.mkv.004
    
    
    http://www.filesonic.com/file/1673394021/Agni Sakshi ( 1996 ) DvD - 2CD - Rip - AVC - x264 - 6 channels.mkv.001
    http://www.filesonic.com/file/1673399211/Agni Sakshi ( 1996 ) DvD - 2CD - Rip - AVC - x264 - 6 channels.mkv.002
    http://www.filesonic.com/file/1673392141/Agni Sakshi ( 1996 ) DvD - 2CD - Rip - AVC - x264 - 6 channels.mkv.003
    http://www.filesonic.com/file/1673348371/Agni Sakshi ( 1996 ) DvD - 2CD - Rip - AVC - x264 - 6 channels.mkv.004
    
    
    http://www.wupload.com/file/96591295/Agni Sakshi ( 1996 ) DvD - 2CD - Rip - AVC - x264 - 6 channels.mkv.001
    http://www.wupload.com/file/96590970/Agni Sakshi ( 1996 ) DvD - 2CD - Rip - AVC - x264 - 6 channels.mkv.002
    http://www.wupload.com/file/96590997/Agni Sakshi ( 1996 ) DvD - 2CD - Rip - AVC - x264 - 6 channels.mkv.003
    http://www.wupload.com/file/96585170/Agni Sakshi ( 1996 ) DvD - 2CD - Rip - AVC - x264 - 6 channels.mkv.004


 

 

Posting Permissions

  • You may not post new threads
  • You may not post replies
  • You may not post attachments
  • You may not edit your posts
  •