Results 1 to 1 of 1
  1. #1
    dR Rockers www.desirulez.net
    Join Date
    Aug 2011
    Posts
    5,859

    T

    Default Karz ( 1980 ) - 1.26GB - 1/3 - DvDRip - XviD - 6 channels - ( XMR )

    Follow us on Social Media











    Karz ( 1980 )









    Code:
    Ripper                           : Rahul
    Source                           : Drc
    Complete name                    : Karz ( 1980 )
    Format                           : AVI
    Format/Info                      : Audio Video Interleave
    File size                        : 1.26 GiB
    Duration                         : 2h 36mn
    Overall bit rate                 : 1 152 Kbps
    Writing application              : VirtualDubMod 1.5.10.3 | 
    
    Video
    ID                               : 0
    Format                           : MPEG-4 Visual
    Format profile                   : Advanced [email protected]
    Format settings, BVOP            : 2
    Format settings, QPel            : Yes
    Format settings, GMC             : No warppoints
    Format settings, Matrix          : Default (MPEG)
    Codec ID                         : XVID
    Codec ID/Hint                    : XviD
    Duration                         : 2h 36mn
    Bit rate                         : 1 014 Kbps
    Width                            : 704 pixels
    Height                           : 352 pixels
    Display aspect ratio             : 2.000
    Frame rate                       : 23.976 fps
    Color space                      : YUV
    Chroma subsampling               : 4:2:0
    Bit depth                        : 8 bits
    Scan type                        : Interlaced
    Scan order                       : Bottom Field First
    Compression mode                 : Lossy
    Bits/(Pixel*Frame)               : 0.171
    Stream size                      : 1.11 GiB (88%)
    Writing library                  : XviD 1.2.1 (UTC 2008-12-04)
    
    Audio
    ID                               : 1
    Format                           : AC-3
    Format/Info                      : Audio Coding 3
    Mode extension                   : CM (complete main)
    Codec ID                         : 2000
    Duration                         : 2h 36mn
    Bit rate mode                    : Constant
    Bit rate                         : 128 Kbps
    Channel(s)                       : 6 channels
    Channel positions                : Front: L C R, Side: L R, LFE
    Sampling rate                    : 48.0 KHz
    Bit depth                        : 16 bits
    Compression mode                 : Lossy
    Stream size                      : 144 MiB (11%)
    Alignment                        : Split accross interleaves
    Interleave, duration             : 42 ms (1.00 video frame)
    Interleave, preload duration     : 500 ms
    Synopsis











    Cast




















    SINGLE LINK

    Code:
    http://www.fileserve.com/file/fBZa6TZ/Karz_(_1980_)_DvD_-_2CD_-_Rip_-_Xvid_-_6_channels.avi
    Code:
    http://www.filesonic.com/file/1666219311/Karz ( 1980 ) DvD - 2CD - Rip - Xvid - 6 channels.avi
    Code:
    http://www.wupload.com/file/94225221/Karz ( 1980 ) DvD - 2CD - Rip - Xvid - 6 channels.avi


    450MB LINKS


    Code:
    http://www.fileserve.com/file/5nbZm9H/Karz_(_1980_)_DvD_-_2CD_-_Rip_-_Xvid_-_6_channels.avi.001
    http://www.fileserve.com/file/7t7mfvZ/Karz_(_1980_)_DvD_-_2CD_-_Rip_-_Xvid_-_6_channels.avi.002
    http://www.fileserve.com/file/A99AJnh/Karz_(_1980_)_DvD_-_2CD_-_Rip_-_Xvid_-_6_channels.avi.003
    
    
    http://www.filesonic.com/file/1666141621/Karz ( 1980 ) DvD - 2CD - Rip - Xvid - 6 channels.avi.001
    http://www.filesonic.com/file/1666158881/Karz ( 1980 ) DvD - 2CD - Rip - Xvid - 6 channels.avi.002
    http://www.filesonic.com/file/1666141431/Karz ( 1980 ) DvD - 2CD - Rip - Xvid - 6 channels.avi.003
    
    
    http://www.wupload.com/file/94223429/Karz ( 1980 ) DvD - 2CD - Rip - Xvid - 6 channels.avi.001
    http://www.wupload.com/file/94223438/Karz ( 1980 ) DvD - 2CD - Rip - Xvid - 6 channels.avi.002
    http://www.wupload.com/file/94223426/Karz ( 1980 ) DvD - 2CD - Rip - Xvid - 6 channels.avi.003

 

 

Posting Permissions

  • You may not post new threads
  • You may not post replies
  • You may not post attachments
  • You may not edit your posts
  •