Results 1 to 1 of 1
  1. #1
    Landed To DesiRulez www.desirulez.net
    Join Date
    Aug 2011
    Posts
    11

    T

    Talking Sucker.Punch.EXTENDED.CUT.2011.BRRiP.XViD

    Follow us on Social Media







    Sucker.Punch.EXTENDED.CUT.2011.BRRiP.XViD



    Sucker.Punch.Extended.Cut.2011.BRrip.XViD

    Format : AVI
    Format/Info : Audio Video Interleave
    File size : 799 MiB
    Duration : 2h 7mn
    Overall bit rate : 876 Kbps

    Video
    ID : 0
    Format : MPEG-4 Visual
    Format profile : Advanced [email protected]
    Format settings, BVOP : 2
    Format settings, QPel : No
    Format settings, GMC : No warppoints
    Format settings, Matrix : Default (H.263)
    Codec ID : XVID
    Codec ID/Hint : XviD
    Duration : 2h 7mn
    Bit rate : 742 Kbps
    Width : 640 pixels
    Height : 272 pixels
    Display aspect ratio : 2.35:1
    Frame rate : 23.976 fps
    Color space : YUV
    Chroma subsampling : 4:2:0
    Bit depth : 8 bits
    Scan type : Progressive
    Compression mode : Lossy
    Bits/(Pixel*Frame) : 0.178
    Stream size : 677 MiB (85%)
    Writing library : XviD 1.2.1 (UTC 2008-12-04)

    Audio
    ID : 1
    Format : MPEG Audio
    Format version : Version 1
    Format profile : Layer 3
    Mode : Joint stereo
    Mode extension : MS Stereo
    Codec ID : 55
    Codec ID/Hint : MP3
    Duration : 2h 7mn
    Bit rate mode : Constant
    Bit rate : 128 Kbps
    Channel(s) : 2 channels
    Sampling rate : 48.0 KHz
    Compression mode : Lossy
    Stream size : 117 MiB (15%)
    Alignment : Aligned on interleaves
    Interleave, duration : 167 ms (4.00 video frames)
    Interleave, preload duration : 216 ms
    Title : RiPPED BY nCODE
    Writing library : LAME3.98r
    Encoding settings : -m j -V 4 -q 2 -lowpass 17 -b 128









    Code:
    http://filepost.com/files/d2e88441/5UKAPUCH3XTND799.rar/
    OR:
    Code:
    http://bitshare.com/files/8jcgs2lk/5UKAPUCH3XTND799.rar.html
    OR:
    Code:
    http://www.fileserve.com/file/VZrM276
    OR:
    Code:
    http://www.filesonic.com/file/1659702054
    OR:
    Code:
    http://www.uploadstation.com/file/aPmhZfq
    Get 5UKAPUCH3XTND799.rar on Wupload.com

 

 

Posting Permissions

  • You may not post new threads
  • You may not post replies
  • You may not post attachments
  • You may not edit your posts
  •