Results 1 to 2 of 2
  1. #1
    dR Rockers www.desirulez.net
    Join Date
    Aug 2011
    Posts
    5,859

    T

    Default Andaz Apna Apna (1994) - 1.45GB - 1/3 - DVDRip - x264 - AC3 - [DUS]

    Follow us on Social Media










    Code:
    Code:
         Movie Name..........: Andaz Apna Apna
    IMDB Link.............: Andaz Apna Apna-1994
    
    Rip Details
    
    Source.................: DVD9 @DRs
    Ripper..................: Joe
    Format.................: Matroska
    File size................: 1.45 GiB
    Duration................: 2h 41mn
    Overall bit rate.......: 1 292 Kbps
     
    
    Video
    
    Format                     : AVC
    Format profile          : [email protected]
    Duration                  : 2h 41mn
    Bit rate                     : 998 Kbps
    Width                       : 720 pixels
    Height                      : 352 pixels
    Display aspect ratio : 2.045
    Frame rate                : 23.976 fps
    Color space              : YUV
    Bit depth                  : 8 bits
    Scan type                 : Progressive
    Bits/(Pixel*Frame)    : 0.190
    Stream size              : 1.17 GiB (81%)
    Writing library          : x264 core
    
     Audio
    
    Format                     : AC-3
    Duration                  : 2h 59mn
    Bit rate mode           : Constant
    Bit rate                     : 224 Kbps
    Channel(s)               : 2 channels
    Channel positions   : Front: L R
    Sampling rate          : 48 KHz
    Bit depth                 : 16 bits
    Compression mode : Lossy
    Stream size             : 258 MiB (17%)















    Code:
    http://www.fileserve.com/file/vMZsgmr/Andaz_Apna_Apna_(1994).mkv
    Code:
    http://www.filesonic.com/file/1666162784/Andaz Apna Apna (1994).mkv
    Code:
    http://www.wupload.com/file/94230666/Andaz Apna Apna (1994).mkv

  2. #2
    Landed To DesiRulez www.desirulez.net
    Join Date
    Dec 2011
    Posts
    14

    T

    Default

    Awesome Bollywood comedy
    Must watch, Thanks for sharing

 

 

Posting Permissions

  • You may not post new threads
  • You may not post replies
  • You may not post attachments
  • You may not edit your posts
  •