Results 1 to 1 of 1
  1. #1
    dR Contributor www.desirulez.net
    Join Date
    Jan 2011
    Posts
    2,299

    T

    Smile Ek Chhotisi Love Story (2002) - 2CD - DVDRip - Xvid

    Follow us on Social Media









    Casts: Manisha Koirala, Aditya Seal, Ranvir Shorey, Saroj Bhargava
    Director: Shashilal K. Nair
    Genre: Drama, Romance
    Release Date: 2002

    Storyline:

    A story of coming of age of a young 15 year old boy, Aditya, who spends his free time spying on a young woman in the opposite building with a telescope, ready to give his life for her love. The young woman is enraged, and then amused when she finds out, and decides to teach young Aditya a lesson that he will never forget in his life.

    Rip Information:

    Ripper : Rahul
    Complete name : Ek Chhotisi Love Story (2002)
    Format : AVI
    Format/Info : Audio Video Interleave
    File size : 1.36 GiB
    Duration : 2h 9mn
    Overall bit rate : 1 507 Kbps

    Video
    ID : 0
    Format : MPEG-4 Visual
    Format profile : Advanced [email protected]
    Format settings, BVOP : Yes
    Format settings, QPel : No
    Format settings, GMC : No warppoints
    Format settings, Matrix : Default (MPEG)
    Codec ID : XVID
    Codec ID/Hint : XviD
    Duration : 2h 9mn
    Bit rate : 1 114 Kbps
    Width : 704 pixels
    Height : 304 pixels
    Display aspect ratio : 2.35:1
    Frame rate : 29.970 fps
    Color space : YUV
    Chroma subsampling : 4:2:0
    Bit depth : 8 bits
    Scan type : Progressive
    Compression mode : Lossy
    Bits/(Pixel*Frame) : 0.174
    Stream size : 1.01 GiB (74%)
    Writing library : XviD 1.2.1 (UTC 2008-12-04)

    Audio
    ID : 1
    Format : AC-3
    Format/Info : Audio Coding 3
    Mode extension : CM (complete main)
    Codec ID : 2000
    Duration : 2h 9mn
    Bit rate mode : Constant
    Bit rate : 384 Kbps
    Channel(s) : 6 channels
    Channel positions : Front: L C R, Side: L R, LFE
    Sampling rate : 48.0 KHz
    Bit depth : 16 bits
    Compression mode : Lossy
    Stream size : 356 MiB (25%)
    Alignment : Aligned on interleaves
    Interleave, duration : 64 ms (1.92 video frames)
    Interleave, preload duration : 192 ms









    Code:
    http://cramit.in/h0dnx1c2r09m
    http://cramit.in/5wxjubq2fg4v

 

 

Posting Permissions

  • You may not post new threads
  • You may not post replies
  • You may not post attachments
  • You may not edit your posts
  •