Results 1 to 1 of 1
  1. #1
    dR Contributor
    Join Date
    Jan 2011

    Smile Rang (1993) - 1CD - DVDRip - x264 - AAC - [MDG]

    Follow us on Social Media

    Casts: Jeetendra, Amrita Singh, Kamal Sadanah, Ayesha Jhulka, Bindu, Divya Bharati, Rita Bhaduri
    Director: Talat Jani
    Genre: Romance, Drama
    Release Date: 9 July 1993


    Engrossed with keeping her figure and looking young, Suchitra Singh, has little time for anything else. She has seen her daughter, Indu, get married to Ajay Malhotra, against her wishes, give birth to two daughters, Pooja and Kajal, then get separated from Ajay, with Kajal staying with Indu. Suchitra and Indu now run a business and are quite successful with it's performance. Although they sign new contracts and earn even more revenue, they refuse to increase wages and benefits of their employees, which leads to a strike. Then their board of directors oust them and elect a new Chairman - who is none other than Ajay Malhotra. Pooja, who lives with her dad, confides that she loves a fellow collegian by the name of Yogi Joshi, and Ajay arranges her marriage with him, only to find out that he loves his other daughter, Kajal. Now Ajay has to decide whether he can go ahead and get Pooja married and break Kajal's heart or vice versa - complicated all the more by his estranged wife...

    Rip Information:

    Name : Rang
    Format : MPEG-4
    Format profile : Base Media
    Codec ID : isom
    File size : 695 MiB
    Duration : 2h 30mn
    Overall bit rate : 646 Kbps

    ID : 1
    Format : AVC
    Format/Info : Advanced Video Codec
    Format profile : [email protected]
    Format settings, CABAC : Yes
    Format settings, ReFrames : 5 frames
    Codec ID : avc1
    Codec ID/Info : Advanced Video Coding
    Duration : 2h 30mn
    Bit rate mode : Variable
    Bit rate : 580 Kbps
    Maximum bit rate : 3 241 Kbps
    Width : 640 pixels
    Height : 320 pixels
    Display aspect ratio : 2.000
    Frame rate mode : Constant
    Frame rate : 23.976 fps
    Color space : YUV
    Chroma subsampling : 4:2:0
    Bit depth : 8 bits
    Scan type : Progressive
    Bits/(Pixel*Frame) : 0.118
    Stream size : 623 MiB (90%)

    ID : 2
    Format : AAC
    Format/Info : Advanced Audio Codec
    Format version : Version 4
    Format profile : LC
    Format settings, SBR : Yes
    Format settings, PS : No
    Codec ID : 40
    Duration : 2h 30mn
    Bit rate mode : Variable
    Bit rate : 64.0 Kbps
    Maximum bit rate : 69.5 Kbps
    Channel(s) : 2 channels
    Channel positions : Front: L R
    Sampling rate : 44.1 KHz
    Stream size : 68.9 MiB (10%)

    Source : DVD
    Ripper : Nordmariner

    Credits to "MDG"




Posting Permissions

  • You may not post new threads
  • You may not post replies
  • You may not post attachments
  • You may not edit your posts