Results 1 to 1 of 1
  1. #1
    dR Contributor www.desirulez.net
    Join Date
    Jun 2010
    Location
    India
    Posts
    2,470

    T

    Default WWE.NXT.2nd.August.2011.HQ-ETWD

    Follow us on Social Media







    WWE.NXT.2nd.August.2011.HQ-ETWD

    Code:
    General
    Format                           : Flash Video
    File size                        : 310 MiB
    Duration                         : 48mn 6s
    Overall bit rate                 : 901 Kbps
    httphostheader                   : o-o.preferred.lga15s18.v8.lscache1.c.youtube.com
    
    Video
    Format                           : AVC
    Format/Info                      : Advanced Video Codec
    Format profile                   : [email protected]
    Format settings, CABAC           : Yes
    Format settings, ReFrames        : 3 frames
    Format settings, GOP             : M=1, N=60
    Codec ID                         : 7
    Duration                         : 48mn 7s
    Bit rate                         : 764 Kbps
    Width                            : 640 pixels
    Height                           : 360 pixels
    Display aspect ratio             : 16:9
    Frame rate mode                  : Constant
    Frame rate                       : 29.970 fps
    Color space                      : YUV
    Chroma subsampling               : 4:2:0
    Bit depth                        : 8 bits
    Scan type                        : Progressive
    Bits/(Pixel*Frame)               : 0.111
    Stream size                      : 263 MiB (85%)
    
    Audio
    Format                           : AAC
    Format/Info                      : Advanced Audio Codec
    Format profile                   : LC
    Codec ID                         : 10
    Duration                         : 48mn 6s
    Bit rate                         : 128 Kbps
    Channel(s)                       : 2 channels
    Channel positions                : Front: L R
    Sampling rate                    : 44.1 KHz
    Compression mode                 : Lossy
    Stream size                      : 44.1 MiB (14%)
    Code:
    One Link 
    
    http://www.fileserve.com/file/DDJX4rF
    
    http://bitshare.com/files/qpyxzdfg/WWE.NXT.2nd.August.2011.HQ-ETWD.flv.html
    
    http://www.filesonic.com/file/1640000784
    
    http://www.megaupload.com/?d=017BOEN4
    
    http://x7.to/7wsv44
    
    https://rapidshare.com/files/1646904528/WWE.NXT.2nd.August.2011.HQ-ETWD.flv
    
    http://netload.in/dateiosbAxQamco/WWE.NXT.2nd.August.2011.HQ-ETWD.flv.htm
    
    http://depositfiles.com/files/a7s11idud
    
    http://letitbit.net/download/02792.0e8995a387178a03ac6eff24c271/WWE.NXT.2nd.August.2011.HQ-ETWD.flv.html
    
    http://turbobit.net/hphan5nqpy5f.html
    
    http://www.wupload.com/file/86468376

 

 

Posting Permissions

  • You may not post new threads
  • You may not post replies
  • You may not post attachments
  • You may not edit your posts
  •