Results 1 to 2 of 2
  1. #1
    Hot Member www.desirulez.net
    Join Date
    Jan 2011
    Posts
    1,881

    T

    Thumbs up Murder 2 (2011) 720p DvD RiP X264 5.1 AC3 SuB [Team DUS]

    Follow us on Social Media







    Murder 2 (2011) 720p DvD RiP X264 5.1 AC3 SuB [Team DUS]


    Code:
    General
    Source : DvD 9 @ DUS Warehouse lol
    Ripper : Dee [Team DUS]
    Note : Site WaterMaker, Anniversary of Team Dus, Enjoyz
    Complete name : Murder 2 (2011) 720p DvD RiP X264 5.1 AC3 SuB [Team DUS].mkv
    Format : Matroska
    Format version : Version 2
    File size : 2.05 GiB
    Duration : 2h 6mn
    Overall bit rate : 2 323 Kbps
    
    Video
    ID : 1
    Format : AVC
    Format/Info : Advanced Video Codec
    Format profile : [email protected]
    Format settings, CABAC : Yes
    Format settings, ReFrames : 5 frames
    Codec ID : V_MPEG4/ISO/AVC
    Duration : 2h 6mn
    Bit rate : 1 873 Kbps
    Width : 1 280 pixels
    Height : 544 pixels
    Display aspect ratio : 2.35:1
    Frame rate : 23.976 fps
    Color space : YUV
    Chroma subsampling : 4:2:0
    Bit depth : 8 bits
    Scan type : Progressive
    Bits/(Pixel*Frame) : 0.112
    Stream size : 1.61 GiB (79%)
    Writing library : x264 core 115 r1995 c1e60b9
    Language : English
    
    Audio
    ID : 2
    Format : AC-3
    Format/Info : Audio Coding 3
    Mode extension : CM (complete main)
    Codec ID : A_AC3
    Duration : 2h 6mn
    Bit rate mode : Constant
    Bit rate : 448 Kbps
    Channel(s) : 6 channels
    Channel positions : Front: L C R, Side: L R, LFE
    Sampling rate : 48.0 KHz
    Bit depth : 16 bits
    Compression mode : Lossy
    Stream size : 405 MiB (19%)














    SINGLE LINK:
    Code:
    http://www.filesonic.com/file/1616713351/Murder_2_(2011)_720p_DvD_RiP_X264_5.1_AC3_SuB_[Team_DUS].mkv
    =OR=

    Code:
    http://www.filesonic.com/file/1616711551/Murder_2_(2011)_720p_DvD_RiP_X264_5.1_AC3_SuB_[Team_DUS].mkv.001
    http://www.filesonic.com/file/1616711731/Murder_2_(2011)_720p_DvD_RiP_X264_5.1_AC3_SuB_[Team_DUS].mkv.002
    http://www.filesonic.com/file/1616713241/Murder_2_(2011)_720p_DvD_RiP_X264_5.1_AC3_SuB_[Team_DUS].mkv.003
    http://www.filesonic.com/file/1616713441/Murder_2_(2011)_720p_DvD_RiP_X264_5.1_AC3_SuB_[Team_DUS].mkv.004
    http://www.filesonic.com/file/1616713381/Murder_2_(2011)_720p_DvD_RiP_X264_5.1_AC3_SuB_[Team_DUS].mkv.005
    http://www.filesonic.com/file/1616713401/Murder_2_(2011)_720p_DvD_RiP_X264_5.1_AC3_SuB_[Team_DUS].srt

    Code:
    http://www.fileserve.com/file/2dFPhuj/Murder_2_(2011)_720p_DvD_RiP_X264_5.1_AC3_SuB_[Team_DUS].mkv.001
    http://www.fileserve.com/file/8Dvvgjt/Murder_2_(2011)_720p_DvD_RiP_X264_5.1_AC3_SuB_[Team_DUS].mkv.002
    http://www.fileserve.com/file/2T49RMM/Murder_2_(2011)_720p_DvD_RiP_X264_5.1_AC3_SuB_[Team_DUS].mkv.003
    http://www.fileserve.com/file/MH9ba3q/Murder_2_(2011)_720p_DvD_RiP_X264_5.1_AC3_SuB_[Team_DUS].mkv.004
    http://www.fileserve.com/file/wfvyMyS/Murder_2_(2011)_720p_DvD_RiP_X264_5.1_AC3_SuB_[Team_DUS].mkv.005
    http://www.fileserve.com/file/8PY2r4p/Murder_2_(2011)_720p_DvD_RiP_X264_5.1_AC3_SuB_[Team_DUS].srt

    Code:
    http://www.wupload.com/file/82520986/Murder_2_(2011)_720p_DvD_RiP_X264_5.1_AC3_SuB_[Team_DUS].mkv.001
    http://www.wupload.com/file/82520982/Murder_2_(2011)_720p_DvD_RiP_X264_5.1_AC3_SuB_[Team_DUS].mkv.002
    http://www.wupload.com/file/82521010/Murder_2_(2011)_720p_DvD_RiP_X264_5.1_AC3_SuB_[Team_DUS].mkv.003
    http://www.wupload.com/file/82521018/Murder_2_(2011)_720p_DvD_RiP_X264_5.1_AC3_SuB_[Team_DUS].mkv.004
    http://www.wupload.com/file/82521034/Murder_2_(2011)_720p_DvD_RiP_X264_5.1_AC3_SuB_[Team_DUS].mkv.005
    http://www.wupload.com/file/82521022/Murder_2_(2011)_720p_DvD_RiP_X264_5.1_AC3_SuB_[Team_DUS].srt

  2. #2
    New Arrivals
    Join Date
    Aug 2011
    Posts
    2

    T

    Default

    where is the link to watch the movie murder 2

 

 

Posting Permissions

  • You may not post new threads
  • You may not post replies
  • You may not post attachments
  • You may not edit your posts
  •