Results 1 to 1 of 1
  1. #1

    Thumbs up Recoil - A Strange Hour (2010)

    Follow us on Social Media







    Recoil - A Strange Hour (2010)[DVD5]

    INFO :
    Code:
    Format                           : MPEG-PS
    File size                        : 4 130 MiB
    Duration                         : 1h 15mn 
    Overall bit rate                 : 7 621 Kbps
    
    Video
    ID                               : 224 (0xE0)
    Format                           : MPEG Video
    Format version                   : Version 2
    Format profile                   : [email protected]
    Format settings, BVOP            : Yes
    Format settings, Matrix          : Custom
    Format settings, GOP             : M=3, N=12
    Bit rate mode                    : Variable
    Bit rate                         : 5 933 Kbps
    Maximum bit rate                 : 7 000 Kbps
    Width                            : 720 pixels
    Height                           : 480 pixels
    Display aspect ratio             : 16:9
    Frame rate                       : 23.976 fps
    Standard                         : NTSC
    Color space                      : YUV
    Chroma subsampling               : 4:2:0
    Bit depth                        : 8 bits
    Scan type                        : Progressive
    Scan order                       : 2:3 Pulldown
    Compression mode                 : Lossy
    Bits/(Pixel*Frame)               : 0.716
    Stream size                      : 797 MiB (78%)
    
    Audio
    ID                               : 189 (0xBD)-160 (0xA0)
    Format                           : PCM
    Format settings, Endianness      : Big
    Format settings, Sign            : Signed
    Muxing mode                      : DVD-Video
    Bit rate mode                    : Constant
    Bit rate                         : 1 536 Kbps
    Channel(s)                       : 2 channels
    Channel positions                : Front: L R
    Sampling rate                    : 48.0 KHz
    Bit depth                        : 16 bits
    Stream size                      : 206 MiB (20%)
    
    Recovery : +5%
    Cover : No
    Compression method : Best
    Type archive : Rar (4x957MB + 1x372MB)
    
    Tracklist:
       01. - Recoil Medley       
       02. - Prey       
       03. - Want       
       04. - To Shape The Future       
       05. - Drifting [Poison Dub]       
       06. - Strange Hours '10 Featuring – Black Ships, The       
       07. - Allelujah [Noisy Church Mix]       
       08. - The Killing Ground [Solid State Mix]       
       09. - Never Let Me Down Again [Digitalism Remix/Split Mix]       
    10.a - Uranokemia       
    10.b - Shunt [Pan Sonic Mix]       
    10.c - Hayfever       
      11. - Black Box [Excerpt]       
      12. - Stalker [Punished Mix]       
    13.a - Faith Healer [Disbeliever Mix]       
    13.b - Fundamental       
      14  - Shunt       
    15.a - Jezebel       
    15.b - New York Nights
    FILESERVE ENCRYPT LINKS
    ( Click'n'Load with JDownloader )

    Code:
     http://nov.io/smb3
    HELLSHARE ENCRYPT LINKS
    ( Weblinks, Click'n'Load, DLC, CCF, RSDF )

    Code:
     http://nov.io/itHg
    ...copy link in browser, wait 5s, click on "SKIP AD", click on "Click´n´Load" or other and download...

    >>LINKS ARE INTERCHANGEABLE<<
    nO pASS
    ...YOU CAN SHARE MY UPLOADS...

 

 

Posting Permissions

  • You may not post new threads
  • You may not post replies
  • You may not post attachments
  • You may not edit your posts
  •