Results 1 to 1 of 1
  1. #1
    Banned www.desirulez.net
    Join Date
    Jul 2011
    Posts
    236

    Default UFC 133 HDTV X264 MKV-GTi

    Follow us on Social Media







    UFC 133 HDTV X264 MKV-GTi



    RELEASENOTES


    Code:
    UFC.133.HDTV.X264.MKV-GTi
    
    
    
    Seems stream 0 codec frame rate differs from container frame rate: 50.00 (50/1) -> 100.00 (100/1)
    Input #0, matroska, from 'UFC.133.HDTV.X264.MKV-GTi.mkv':
     Duration: 02:46:30.39, start: 0.000000, bitrate: N/A
       Stream #0.0(eng): Video: h264, yuv420p, 624x352, PAR 1:1 DAR 39:22, 100 tbr, 1k tbn, 50 tbc
       Stream #0.1(eng): Audio: aac, 48000 Hz, stereo, s16
    SAMPLE
    Code:
    http://www.wupload.com/file/82249846/sample.UFC.133.HDTV.X264.MKV.GTi.mkv

    Code:
     SINGLE-EXTRACTION | INTERCHANGABLE | NO PASSWORD
    SINGLELINK DOWNLOAD

    ::.Filesonic::.
    Code:
    http://www.filesonic.com/file/1615174681/UFC.133.HDTV.X264.MKV.GTi.mkv
    ::.Fileserve::.
    Code:
    http://www.fileserve.com/file/p5qhrjt/UFC.133.HDTV.X264.MKV.GTi.mkv
    ::.Wupload::.
    Code:
    http://www.wupload.com/file/82257918/UFC.133.HDTV.X264.MKV.GTi.mkv

    THIS UPLOAD COST YOU A SIMPLE THANKS: "SO DON'T FORGET TO SAY THANKS"

 

 

Posting Permissions

  • You may not post new threads
  • You may not post replies
  • You may not post attachments
  • You may not edit your posts
  •