Results 1 to 1 of 1
  1. #1
    Landed To DesiRulez www.desirulez.net
    Join Date
    Jul 2011
    Posts
    21

    T

    Default UFC 133 Evans vs Ortiz HDTV x264 - EViLCREW

    Follow us on Social Media









    Preliminary Fights
    Code:
    title–[ UFC 133 Preliminary Fights
       │         genre–[ MMA
       │     rel. date–[ 08/06/11                   format–[ XviD
       │      air date–[ 08/06/11                   source–[ HDTV
       │       runtime–[ 53 MiN 41 SEC             bitrate–[ 1288kbps
       │      filesize–[ 584,572,928               resolu.–[ 624x352
       │     rar count–[ 39x15MB (559 MB)           frames–[ 29.970
       │                                             audio–[ 2ch 130kbps 48khz
       │                                          location–[ USA
    Code:
    http://www.wupload.com/file/82181021
    Or
    Code:
    http://www.fileserve.com/file/CCA5HH7
    FULL EVENT
    Code:
    General
    Format : Flash Video
    File size : 2.00 GiB
    Duration : 2h 3mn
    Overall bit rate : 2 309 Kbps
    
    Video
    Format : AVC
    Format/Info : Advanced Video Codec
    Duration : 2h 3mn
    Bit rate mode : Constant
    Bit rate : 2 160 Kbps
    Nominal bit rate : 1 536 Kbps
    Width : 640 pixels
    Height : 360 pixels
    Display aspect ratio : 16:9
    Frame rate mode : Variable
    Frame rate : 30.000 fps
    Standard : NTSC
    Color space : YUV
    Stream size : 1.87 GiB (94%)
    
    Audio
    Format : MPEG Audio
    Codec ID/Hint : MP3
    Duration : 2h 3mn
    Bit rate mode : Constant
    Bit rate : 48.0 Kbps
    Channel(s) : 2 channels
    Sampling rate : 22.05 KHz
    Compression mode : Lossy
    Stream size : 42.5 MiB (2%)

    Code:
    http://www.fileserve.com/file/vaA8c3y
    http://www.fileserve.com/file/JUw5MDv
    OR
    Code:
    http://www.wupload.com/file/82223674
    http://www.wupload.com/file/82227265

    Single Fights
    Main Event
    Code:
    http://www.wupload.com/file/82196561/UFC.133.ORTIZ.VS.EVANS.MAIN.EVENT.wmv
    OR
    Code:
    http://www.fileserve.com/file/vpp8gqX/UFC.133.ORTIZ.VS.EVANS.MAIN.EVENT.wmv
    Co Main Event
    Code:
    http://www.wupload.com/file/82194552/133.Vitor.belfort.vs.Yoshihiro.Akiyama.wmv
    OR
    Code:
    http://www.fileserve.com/file/K7wQqjy/133.Vitor.belfort.vs.Yoshihiro.Akiyama.wmv
    Last edited by KingOnSlaught; 08-07-2011 at 11:37 AM.

 

 

Posting Permissions

  • You may not post new threads
  • You may not post replies
  • You may not post attachments
  • You may not edit your posts
  •