Results 1 to 1 of 1
  1. #1
    shawn rebecca
    Guest

    Default UFC 133 Evans vs Ortiz HDTV PPV x264 EViLCREW

    Follow us on Social Media







    UFC 133 Evans vs Ortiz HDTV PPV x264 EViLCREW



    SCREENS Spoiler

    Code:
    http://i.imgur.com/dpMMx.jpg
    General
    Format : Flash Video
    File size : 2.00 GiB
    Duration : 2h 3mn
    Overall bit rate : 2 309 Kbps

    Video
    Format : AVC
    Format/Info : Advanced Video Codec
    Duration : 2h 3mn
    Bit rate mode : Constant
    Bit rate : 2 160 Kbps
    Nominal bit rate : 1 536 Kbps
    Width : 640 pixels
    Height : 360 pixels
    Display aspect ratio : 16:9
    Frame rate mode : Variable
    Frame rate : 30.000 fps
    Standard : NTSC
    Color space : YUV
    Stream size : 1.87 GiB (94%)

    Audio
    Format : MPEG Audio
    Codec ID/Hint : MP3
    Duration : 2h 3mn
    Bit rate mode : Constant
    Bit rate : 48.0 Kbps
    Channel(s) : 2 channels
    Sampling rate : 22.05 KHz
    Compression mode : Lossy
    Stream size : 42.5 MiB (2%)
    Code:
    http://www.fileserve.com/file/84WxGXK/UFC.133.Evans.vs.Ortiz.HDTV.x264-EViLCREW.part1.rar
    http://www.fileserve.com/file/htV7rQE/UFC.133.Evans.vs.Ortiz.HDTV.x264-EViLCREW.part3.rar
    http://www.fileserve.com/file/HmAbpUj/UFC.133.Evans.vs.Ortiz.HDTV.x264-EViLCREW.part2.rar
    Code:
    http://www.filesonic.com/file/1614351404/UFC.133.Evans.vs.Ortiz.HDTV.x264-EViLCREW.part2.rar
    http://www.filesonic.com/file/1614351354/UFC.133.Evans.vs.Ortiz.HDTV.x264-EViLCREW.part1.rar
    http://www.filesonic.com/file/1614344584/UFC.133.Evans.vs.Ortiz.HDTV.x264-EViLCREW.part3.rar
    SINGLE Links

    Code:
    http://www.filesonic.com/file/1614359344/UFC.133.Evans.vs.Ortiz.HDTV.x264-EViLCREW.flv

 

 

Posting Permissions

  • You may not post new threads
  • You may not post replies
  • You may not post attachments
  • You may not edit your posts
  •