Results 1 to 1 of 1
  1. #1

    Default Saajan Chale Sasural (1996) - XviD - DVDRip - WR

    Follow us on Social Media







    Saajan Chale Sasural (1996) - XviD - DVDRip - WR



    Genral : Comedy | Drama | Family
    Format : AVI
    Format/Info : Audio Video Interleave
    File size : 1.36 GiB
    Duration : 2h 14mn




    ScreenShot:



    Video
    ID : 0
    Format : MPEG-4 Visual
    Format profile : Advanced [email protected]
    Format settings, BVOP : 2
    Format settings, QPel : No
    Format settings, GMC : No warppoints
    Format settings, Matrix : Custom
    Codec ID : XVID
    Codec ID/Hint : XviD
    Duration : 2h 14mn
    Bit rate : 1 321 Kbps
    Width : 640 pixels
    Height : 352 pixels
    Display aspect ratio : 16:9
    Frame rate : 25.000 fps
    Color space : YUV
    Chroma subsampling : 4:2:0
    Bit depth : 8 bits
    Scan type : Progressive
    Compression mode : Lossy
    Bits/(Pixel*Frame) : 0.235
    Stream size : 1.24 GiB (91%)
    Writing library : XviD 1.2.0.dev47 (UTC 2006-11-01)

    Audio
    ID : 1
    Format : MPEG Audio
    Format version : Version 1
    Format profile : Layer 3
    Mode : Joint stereo
    Codec ID : 55
    Codec ID/Hint : MP3
    Duration : 2h 14mn
    Bit rate mode : Variable
    Bit rate : 122 Kbps
    Nominal bit rate : 128 Kbps
    Channel(s) : 2 channels
    Sampling rate : 48.0 KHz
    Compression mode : Lossy
    Stream size : 117 MiB (8%)
    Alignment : Aligned on interleaves
    Interleave, duration : 24 ms (0.60 video frame)
    Interleave, preload duration : 567 ms
    Writing library : LAME3.98a
    Encoding settings : -m j -V 4 -q 2 -lowpass 17 --abr 128

    Download Wupload
    Get Saajan Chale Sasural (1996) - XviD - DVDRip - WR.avi on Wupload.com Chale Sasural (1996) - XviD - DVDRip - WR.avi

    Download Uploadstation

    Download Filesonic

 

 

Posting Permissions

  • You may not post new threads
  • You may not post replies
  • You may not post attachments
  • You may not edit your posts
  •