Results 1 to 2 of 2
  1. #1
    Banned www.desirulez.net
    Join Date
    Jun 2011
    Posts
    229

    T

    Post Stuart Little Duology BRRip Bluray 720p Dual Audio (English+Hindi)

    Follow us on Social Media








    Stuart Little Duology BRRip Bluray 720p Dual Audio (English+Hindi)



    Stuart Little (1999)







    Complete name : Stuart Little (1999) BRRip 720P (English+Hindi) nsh168810.mkv
    Format : Matroska
    File size : 1.47 GiB
    Duration : 1h 24mn
    Overall bit rate : 2 491 Kbps





    Stuart Little (1999) - IMDb





    Video
    ID : 1
    Format : AVC
    Format/Info : Advanced Video Codec
    Format profile : [email protected]
    Format settings, CABAC : Yes
    Format settings, ReFrames : 6 frames
    Muxing mode : Header stripping
    Codec ID : V_MPEG4/ISO/AVC
    Duration : 1h 24mn
    Bit rate mode : Variable
    Nominal bit rate : 2 011 Kbps
    Maximum bit rate : 30.0 Mbps
    Width : 1 280 pixels
    Height : 692 pixels
    Display aspect ratio : 1.850
    Frame rate : 23.976 fps
    Color space : YUV
    Chroma subsampling : 4:2:0
    Bit depth : 8 bits
    Scan type : Progressive
    Bits/(Pixel*Frame) : 0.095




    Audio #1
    ID : 2
    Format : AC-3
    Format/Info : Audio Coding 3
    Mode extension : CM (complete main)
    Muxing mode : Header stripping
    Codec ID : A_AC3
    Duration : 1h 24mn
    Bit rate mode : Constant
    Bit rate : 320 Kbps
    Channel(s) : 6 channels
    Channel positions : Front: L C R, Side: L R, LFE
    Sampling rate : 48.0 KHz
    Bit depth : 16 bits
    Compression mode : Lossy
    Stream size : 194 MiB (13%)
    Title : 5.1
    Language : English




    Audio #2
    ID : 3
    Format : AC-3
    Format/Info : Audio Coding 3
    Muxing mode : Header stripping
    Codec ID : A_AC3
    Duration : 1h 24mn
    Bit rate mode : Constant
    Bit rate : 160 Kbps
    Channel(s) : 2 channels
    Channel positions : Front: L R
    Sampling rate : 44.1 KHz
    Bit depth : 16 bits
    Compression mode : Lossy
    Delay relative to video : 30ms
    Title : nsh168810
    Language : Hindi

















    Stuart Little 2 (2002)







    Complete name : Stuart Little 2 (2002) BRRip 720P (English+Hindi) nsh168810.mkv
    Format : Matroska
    File size : 1.35 GiB
    Duration : 1h 17mn
    Overall bit rate : 2 490 Kbps





    Stuart Little 2 (2002) - IMDb





    Video
    ID : 1
    Format : AVC
    Format/Info : Advanced Video Codec
    Format profile : [email protected]
    Format settings, CABAC : Yes
    Format settings, ReFrames : 6 frames
    Muxing mode : Header stripping
    Codec ID : V_MPEG4/ISO/AVC
    Duration : 1h 17mn
    Bit rate mode : Variable
    Bit rate : 2 011 Kbps
    Maximum bit rate : 30.0 Mbps
    Width : 1 280 pixels
    Height : 694 pixels
    Display aspect ratio : 16:9
    Frame rate : 23.976 fps
    Color space : YUV
    Chroma subsampling : 4:2:0
    Bit depth : 8 bits
    Scan type : Progressive
    Bits/(Pixel*Frame) : 0.094
    Stream size : 1.06 GiB (79%)
    Language : English




    Audio #1
    ID : 2
    Format : AC-3
    Format/Info : Audio Coding 3
    Mode extension : CM (complete main)
    Muxing mode : Header stripping
    Codec ID : A_AC3
    Duration : 1h 17mn
    Bit rate mode : Constant
    Bit rate : 320 Kbps
    Channel(s) : 6 channels
    Channel positions : Front: L C R, Side: L R, LFE
    Sampling rate : 48.0 KHz
    Bit depth : 16 bits
    Compression mode : Lossy
    Stream size : 178 MiB (13%)
    Title : 5.1
    Language : English




    Audio #2
    ID : 3
    Format : AC-3
    Format/Info : Audio Coding 3
    Mode extension : CM (complete main)
    Muxing mode : Header stripping
    Codec ID : A_AC3
    Duration : 1h 17mn
    Bit rate mode : Constant
    Bit rate : 160 Kbps
    Channel(s) : 2 channels
    Channel positions : Front: L R
    Sampling rate : 44.1 KHz
    Bit depth : 16 bits
    Compression mode : Lossy
    Delay relative to video : 1s 367ms
    Stream size : 89.0 MiB (6%)
    Title : nsh168810
    Language : Hindi













    Stuart Little (1999)






    Code:
    http://www.filesonic.com/file/1549797741/Stuart Little (1999) BRRip 720P (English+Hindi) nsh168810.mkv

    Code:
    http://www.wupload.com/file/70548193/Stuart Little (1999) BRRip 720P (English+Hindi) nsh168810.mkv




    Code:
    http://www.filesonic.com/file/1549947441/Stuart Little (1999) BRRip 720P (English+Hindi) nsh168810.mkv.001
    http://www.filesonic.com/file/1549952051/Stuart Little (1999) BRRip 720P (English+Hindi) nsh168810.mkv.002
    http://www.filesonic.com/file/1549951941/Stuart Little (1999) BRRip 720P (English+Hindi) nsh168810.mkv.003
    http://www.filesonic.com/file/1549947341/Stuart Little (1999) BRRip 720P (English+Hindi) nsh168810.mkv.004

    Code:
    http://www.wupload.com/file/70554427/Stuart_Little_(1999)_BRRip_720P_(English+Hindi)_nsh168810.mkv.001
    http://www.wupload.com/file/70554904/Stuart_Little_(1999)_BRRip_720P_(English+Hindi)_nsh168810.mkv.002
    http://www.wupload.com/file/70554619/Stuart_Little_(1999)_BRRip_720P_(English+Hindi)_nsh168810.mkv.003
    http://www.wupload.com/file/70555914/Stuart_Little_(1999)_BRRip_720P_(English+Hindi)_nsh168810.mkv.004
    Stuart Little 2 (2002)



    Code:
    http://www.fileserve.com/file/7CuAEEt

    Code:
    http://www.filesonic.com/file/1550991741/Stuart Little 2 (2002) BRRip 720P (English+Hindi) nsh168810.mkv

    Code:
    http://www.fileserve.com/file/Hwq2956
    http://www.fileserve.com/file/2WXQ9Fm
    http://www.fileserve.com/file/9hnGVsc
    http://www.fileserve.com/file/baQ2SV8

    Code:
    http://www.filesonic.in/file/1552324574/Stuart Little 2 (2002) BRRip 720P (English+Hindi) nsh168810.mkv.001
    http://www.filesonic.in/file/1552489044/Stuart Little 2 (2002) BRRip 720P (English+Hindi) nsh168810.mkv.002
    http://www.filesonic.in/file/1552210134/Stuart Little 2 (2002) BRRip 720P (English+Hindi) nsh168810.mkv.003
    http://www.filesonic.in/file/1552399984/Stuart Little 2 (2002) BRRip 720P (English+Hindi) nsh168810.mkv.004

    Code:
    http://www.wupload.com/file/70760516/Stuart_Little_2_(2002)_BRRip_720P_(English+Hindi)_nsh168810.mkv.001
    http://www.wupload.com/file/70761414/Stuart_Little_2_(2002)_BRRip_720P_(English+Hindi)_nsh168810.mkv.002
    http://www.wupload.com/file/70762720/Stuart_Little_2_(2002)_BRRip_720P_(English+Hindi)_nsh168810.mkv.003
    http://www.wupload.com/file/70762155/Stuart_Little_2_(2002)_BRRip_720P_(English+Hindi)_nsh168810.mkv.004


  2. #2
    Member www.desirulez.net
    Join Date
    Jul 2011
    Location
    Gujranwala
    Posts
    37

    T

    Default

    Please add Stuart Little 1 links to Fileserve.com

 

 

Posting Permissions

  • You may not post new threads
  • You may not post replies
  • You may not post attachments
  • You may not edit your posts
  •