Results 1 to 2 of 2
  1. #1
    Banned www.desirulez.net
    Join Date
    Jun 2011
    Posts
    229

    T

    Post Torque.2004.BRrip.720p.Dual.Audio.[Eng-Hindi]

    Follow us on Social Media








    Torque.2004.BRrip.720p.Dual.Audio.[Eng-Hindi]





    General
    Complete name : Torque.2004.BRrip.720p.Dual.Audio.Eng-Hindi~MSBHATTI [First On Net]
    Format : Matroska
    File size : 2.86 GiB
    Duration : 1h 20mn
    Overall bit rate : 5 074 Kbps
    Encoded date : UTC 2011-07-14 14:07:26
    Writing application : mkvmerge v3.3.0 ('Language') built on Mar 24 2010 14:59:24
    Writing library : libebml v0.8.0 + libmatroska v0.9.0

    Video
    ID : 1
    Format : AVC
    Format/Info : Advanced Video Codec
    Format profile : [email protected]
    Format settings, CABAC : Yes
    Format settings, ReFrames : 3 frames
    Format settings, GOP : M=4, N=28
    Codec ID : V_MPEG4/ISO/AVC
    Duration : 1h 20mn
    Bit rate mode : Variable
    Bit rate : 4 270 Kbps
    Maximum bit rate : 14.0 Mbps
    Width : 1 280 pixels
    Height : 544 pixels
    Display aspect ratio : 2.35:1
    Frame rate : 25.000 fps
    Original frame rate : 23.976 fps
    Color space : YUV
    Chroma subsampling : 4:2:0
    Bit depth : 8 bits
    Scan type : Progressive
    Bits/(Pixel*Frame) : 0.245
    Stream size : 2.46 GiB (86%)
    Writing library : x264 core 115 r1995 c1e60b9
    Encoding settings : cabac=1 / ref=3 / deblock=1:0:0 / analyse=0x3:0x113 / me=hex / subme=7 / psy=1 / psy_rd=1.00:0.00 / mixed_ref=1 / me_range=16 / chroma_me=1 / trellis=1 / 8x8dct=1 / cqm=0 / deadzone=21,11 / fast_pskip=1 / chroma_qp_offset=-2 / threads=3 / sliced_threads=0 / slices=4 / nr=0 / decimate=1 / interlaced=0 / bluray_compat=1 / constrained_intra=0 / bframes=3 / b_pyramid=1 / b_adapt=1 / b_bias=0 / direct=1 / weightb=1 / open_gop=1 / weightp=1 / keyint=24 / keyint_min=2 / scenecut=40 / intra_refresh=0 / rc_lookahead=24 / rc=2pass / mbtree=1 / bitrate=4270 / ratetol=1.0 / qcomp=0.60 / qpmin=0 / qpmax=69 / qpstep=4 / cplxblur=20.0 / qblur=0.5 / vbv_maxrate=14000 / vbv_bufsize=14000 / nal_hrd=vbr / ip_ratio=1.40 / aq=1:1.00
    Language : English

    Audio #1
    ID : 2
    Format : AC-3
    Format/Info : Audio Coding 3
    Mode extension : CM (complete main)
    Codec ID : A_AC3
    Duration : 1h 20mn
    Bit rate mode : Constant
    Bit rate : 448 Kbps
    Channel(s) : 6 channels
    Channel positions : Front: L C R, Side: L R, LFE
    Sampling rate : 48.0 KHz
    Bit depth : 16 bits
    Compression mode : Lossy
    Stream size : 258 MiB (9%)
    Title : MSBHATTI
    Language : English

    Audio #2
    ID : 3
    Format : MPEG Audio
    Format version : Version 1
    Format profile : Layer 3
    Mode : Joint stereo
    Codec ID : A_MPEG/L3
    Codec ID/Hint : MP3
    Duration : 1h 20mn
    Bit rate mode : Constant
    Bit rate : 160 Kbps
    Channel(s) : 2 channels
    Sampling rate : 48.0 KHz
    Compression mode : Lossy
    Delay relative to video : 200ms
    Stream size : 92.2 MiB (3%)
    Title : MSBHATTI
    Language : Hindi


















    Code:
    http://www.filesonic.in/file/1537971391/Torque.2004.BRrip.720p.Dual.Audio.Eng-Hindi~MSBHATTI [First On Net].mkv

    Code:
    http://www.filesonic.in/file/1538085291/Torque.2004.BRrip.720p.Dual.Audio.Eng-Hindi~MSBHATTI [First On Net].mkv.001
    http://www.filesonic.in/file/1538085281/Torque.2004.BRrip.720p.Dual.Audio.Eng-Hindi~MSBHATTI [First On Net].mkv.002
    http://www.filesonic.in/file/1538082481/Torque.2004.BRrip.720p.Dual.Audio.Eng-Hindi~MSBHATTI [First On Net].mkv.003
    http://www.filesonic.in/file/1538082381/Torque.2004.BRrip.720p.Dual.Audio.Eng-Hindi~MSBHATTI [First On Net].mkv.004

  2. #2
    www.desirulez.mewww.desirulez.net
    Join Date
    Apr 2011
    Location
    DesiRulez
    Posts
    55,330

    T

    Default

    kick-ass share

 

 

Posting Permissions

  • You may not post new threads
  • You may not post replies
  • You may not post attachments
  • You may not edit your posts
  •