Results 1 to 1 of 1
  1. #1
    Hot Member www.desirulez.net
    Join Date
    Mar 2009
    Posts
    561

    T

    Angry Singham (2011) - 1CD - DVD - SCR - Rip - [TDT]

    Follow us on Social Media









    CLICK THE IMAGES TO VIEW ITS FULL SIZE







    Code:
    General
     Complete name : Singham (2011) - Xvid - 1CD - DvdScrRip - Mp3 - E-Subs - [TDT].avi
     IMDB : Singham (2011) - IMDb
     Format : AVI
     Format/Info : Audio Video Interleave
     File size : 687 MiB
     Duration : 2h 18mn
     Overall bit rate : 694 Kbps
     Writing application : VirtualDubMod 1.5.10.3 | VirtualDub-Fr.org || (build 2550/release)
     Writing library : VirtualDubMod build 2550/release
    Source : DvdScreener @ Team ICTV .. Thnx A LOT 
    Ripper : KINGFISHER [~TDT~].
    
    Video
     ID : 0
     Format : MPEG-4 Visual
     Format profile : Advanced [email protected]
     Format settings, BVOP : Yes
     Format settings, QPel : No
     Format settings, GMC : No warppoints
     Format settings, Matrix : Default (H.263)
     Muxing mode : Packed bitstream
     Codec ID : XVID
     Codec ID/Hint : XviD
     Duration : 2h 18mn
     Bit rate : 604 Kbps
     Width : 624 pixels
     Height : 272 pixels
     Display aspect ratio : 2.25:1
     Frame rate : 23.976 fps
     Color space : YUV
     Chroma subsampling : 4:2:0
     Bit depth : 8 bits
     Scan type : Progressive
     Bits/(Pixel*Frame) : 0.149
     Stream size : 598 MiB (87%)
     Writing library : XviD 1.2.1 (UTC 2008-12-04)
    
     Audio
     ID : 1
     Format : MPEG Audio
     Format version : Version 1
     Format profile : Layer 3
     Mode : Joint stereo
     Codec ID : 55
     Codec ID/Hint : MP3
     Duration : 2h 18mn
     Bit rate mode : Constant
     Bit rate : 80.0 Kbps
     Channel(s) : 2 channels
     Sampling rate : 32.0 KHz
     Stream size : 79.2 MiB (12%)
     Alignment : Aligned on interleaves
     Interleave, duration : 42 ms (1.00 video frame)
     Interleave, preload duration : 504 ms
     Writing library : LAME3.98r
     Encoding settings : -m j -V 4 -q 2 -lowpass 13.5 -b 80

    DOWNLOAD:

    Single Link

    Code:
    http://cramit.in/8eii3yl80bw4

    Plz Buy A Premium Account From My Link To Support My Upload





    Last edited by joygourda; 07-30-2011 at 07:14 PM.

 

 

Posting Permissions

  • You may not post new threads
  • You may not post replies
  • You may not post attachments
  • You may not edit your posts
  •