Results 1 to 1 of 1
  1. #1
    Banned www.desirulez.net
    Join Date
    Jun 2011
    Posts
    229

    T

    Post Underworld - Rise of the Lycans(2009)Bluray Rip In[Hindi-Eng-Tamil-Telgu]6CH.AC3

    Follow us on Social Media







    Underworld - Rise of the Lycans(2009)Bluray Rip In[Hindi-Eng-Tamil-Telgu]6CH.AC3





    Michael Sheen.......... Lucian
    Bill Nighy............. Viktor
    Rhona Mitra............ Sonja
    Steven Mackintosh...... Tannis
    Kevin Grevioux......... Raze
    David Aston............ Coloman
    Geraldine Brophy....... Nobleman's Wife
    Leighton Cardno........ Fearful Lycan
    Alex Carroll........... Young Lucian (as Alexander Carroll)
    Elizabeth Hawthorne.... Orsova
    Jason Hood............. Death Dealer
    Mark Mitchinson........ Nobleman
    Tania Nolan............ Luka
    Craig Parker........... Sabas


    Directors : Patrick Tatopoulos
    Writers : Danny McBride (screenplay), Dirk Blackman (screenplay)
    Format : Color, Dubbed, Subtitled, Widescreen
    Language :[Hindi-Eng-Tamil-Telgu]6CH.AC3
    Release Date :23 January 2009
    Run Time : 1h:28m:42s
    Color :Color
    Filming Locations:Auckland, New Zealand
    SUBTITLE:ENGLISH




    Format: H.264/MPEG-4 AVC
    Bitrate:448 kb/ps
    Framerate:23.976 FPS

    Release Title/Year/Language...:Underworld - Rise of the Lycans (2009) Bluray Rip In [Hindi-Eng-Tamil-Telgu] 6CH.AC3 By !!!dip
    Genre: Action | Fantasy | Thriller
    Source: Bluray
    ID: 1
    Format: MPEG-4 Visual
    Format profile: Advanced [email protected]
    Format settings, BVOP: Yes
    Format settings, QPel: Yes
    Format settings, GMC : No warppoints
    Format settings, Matrix: Default (H.263)
    Codec ID: XVID
    Codec ID/Hint: XviD
    Duration: 1h:28m:42s
    Bit rate: 1 955 Kbps
    Width : 1 280 pixels
    Height : 528 pixels
    Display aspect ratio: 2.40:1
    Frame rate : 25.000 fps
    Original frame rate : 23.976 fps
    Color space: YUV
    Chroma subsampling: 4:2:0
    Bit depth : 8 bits
    Scan type: Progressive
    Compression mode: Lossy
    Bits/(Pixel*Frame): 0.116
    Stream size: 1.21 GiB (58%)
    Resolution: 1280 x 528 pixels
    Team: DK Group HD Bluray Releases/HD DESI ROCKER RELEAESEES







    Audio #1
    ID : 2
    Format : AC-3
    Format/Info : Audio Coding 3
    Mode extension : CM (complete main)
    Muxing mode : Header stripping
    Codec ID : A_AC3
    Duration : 1h 28mn
    Bit rate mode : Constant
    Bit rate : 384 Kbps
    Channel(s) : 6 channels
    Channel positions : Front: L C R, Side: L R, LFE
    Sampling rate : 48.0 KHz
    Bit depth : 16 bits
    Compression mode : Lossy
    Stream size : 244 MiB (11%)
    Title : !!!dip
    Language : English

    Audio #2
    ID : 3
    Format : AC-3
    Format/Info : Audio Coding 3
    Mode extension : CM (complete main)
    Muxing mode : Header stripping
    Codec ID : A_AC3
    Duration : 1h 28mn
    Bit rate mode : Constant
    Bit rate : 384 Kbps
    Channel(s) : 6 channels
    Channel positions : Front: L C R, Side: L R, LFE
    Sampling rate : 48.0 KHz
    Bit depth : 16 bits
    Compression mode : Lossy
    Stream size : 244 MiB (11%)
    Title : !!!dip
    Language : Hindi

    Audio #3
    ID : 4
    Format : AC-3
    Format/Info : Audio Coding 3
    Mode extension : CM (complete main)
    Muxing mode : Header stripping
    Codec ID : A_AC3
    Duration : 1h 28mn
    Bit rate mode : Constant
    Bit rate : 384 Kbps
    Channel(s) : 6 channels
    Channel positions : Front: L C R, Side: L R, LFE
    Sampling rate : 48.0 KHz
    Bit depth : 16 bits
    Compression mode : Lossy
    Stream size : 244 MiB (11%)
    Title : !!!dip
    Language : Tamil

    Audio #4
    ID : 5
    Format : AC-3
    Format/Info : Audio Coding 3
    Format profile : Dolby Digital
    Mode extension : CM (complete main)
    Muxing mode : Header stripping
    Codec ID : A_AC3
    Duration : 1h 28mn
    Bit rate mode : Constant
    Bit rate : 192 Kbps
    Channel(s) : 2 channels
    Channel positions : Front: L R
    Sampling rate : 48.0 KHz
    Bit depth : 16 bits
    Compression mode : Lossy
    Stream size : 122 MiB (6%)
    Title : !!!dip
    Language : Telugu








    Underworld: Rise of the Lycans (2009) - IMDb







    Code:
    http://www.fileserve.com/file/wVJtsDx

    Code:
    http://www.filesonic.in/file/1524877484/Underworld - Rise of the Lycans (2009) Bluray Rip In [Hindi-Eng-Tamil-Telgu] 6CH.AC3 By !!!dip.mkv

    Code:
    http://www.wupload.com/file/67460197/Underworld - Rise of the Lycans (2009) Bluray Rip In [Hindi-Eng-Tamil-Telgu] 6CH.AC3 By !!!dip.mkv

 

 

Posting Permissions

  • You may not post new threads
  • You may not post replies
  • You may not post attachments
  • You may not edit your posts
  •