Results 1 to 1 of 1
  1. #1

    Default Dabangg-3D-Side-By-Side-LR-BD-RIP-XVID-MP3-Striker-WBZ

    Follow us on Social Media







    Dabangg-3D-Side-By-Side-LR-BD-RIP-XVID-MP3-Striker-WBZ






    Code:
    This is a 2D to 3D conversion using Side By Side Left/Right Technic.
    
    
    - PC & Mac
    Plays with Stereoscopic Player (Shareware)
    Nvidia Stereoscopic Player (free)
    ArcSoft TotalMedia
    PowerDVD 10 Ultra Mark II
    
    
    - TV
    Compatible with 3D TVs and 3D-Ready TVs that can play SBS (mostly all).
    (Click on 3D button on remote and Chose Side By Side Left / Right when inputing this file)
    
    
    General
    
    3D Specs : 2D to 3D with Side By Side Left-Right Images
    Format : AVI
    File size : 2.34 GB
    Duration : 2h 6mn
    Overall bit rate :2656 Kbps
    
    
    VIDEO
    ID : 0
    Format : MPEG-4 Visual
    Format profile : Advanced [email protected]
    Format settings, BVOP : 2
    Format settings, QPel : No
    Format settings, GMC : No warppoints
    Format settings, Matrix : Default (H.263)
    Muxing mode : Packed bitstream
    Codec ID : XVID
    Codec ID/Hint : XviD
    Duration : 2h 6mn
    Bit rate : 2 196 Kbps
    Width : 1 440 pixels
    Height : 304 pixels
    Display aspect ratio : 4.737
    Frame rate : 24.000 fps
    Color space : YUV
    Chroma subsampling : 4:2:0
    Bit depth : 8 bits
    Scan type : Progressive
    Compression mode : Lossy
    Bits/(Pixel*Frame) : 0.209
    Stream size : 1.93 GiB (83%)
    Writing library : XviD 1.1.2 (UTC 2006-11-01)
    
    AUDIO
    ID : 1
    Format : AC-3
    Format/Info : Audio Coding 3
    Mode extension : CM (complete main)
    Codec ID : 2000
    Duration : 2h 6mn
    Bit rate mode : Constant
    Bit rate : 448 Kbps
    Channel(s) : 6 channels
    Channel positions : Front: L C R, Side: L R, LFE
    Sampling rate : 48.0 KHz
    Bit depth : 16 bits
    Compression mode : Lossy
    Stream size : 404 MiB (17%)
    Alignment : Split accross interleaves
    Interleave, duration : 42 ms (1.00 video frame)
    Interleave, preload duration : 500 ms
    SCReenshots


    NORMAL PAYER SCREENS:























    Stereoscopic Player Screens:











    CREDITS TO WBZ

    Full Movie Download

    Code:
    
    
    Code:
    http://www.filesonic.com/file/1517610804/Dabangg_3D_Side_By_Side_LR_BD_RIP_XVID_MP3_Striker_WBZ.avi.003
    http://www.filesonic.com/file/1517656384/Dabangg_3D_Side_By_Side_LR_BD_RIP_XVID_MP3_Striker_WBZ.avi.002
    http://www.filesonic.com/file/1517841134/Dabangg_3D_Side_By_Side_LR_BD_RIP_XVID_MP3_Striker_WBZ.avi.001
    Code:
    
    
    Code:
    http://cramit.in/c4bweipvzr6s
    http://cramit.in/ot8cddckqb7k
    http://cramit.in/64d2t9s6v3kg
    Code:
    
    




    Buy A Premium Account From My Link To Support Me



    Mega Threads


    ..:ingle Link PC games - * . iso Files * - [You can Request Also] ::..

    ..::Mega Thread for PC games || Compressed | Full iso || Single & Splitted Links || *New*::..

    ..::All Latest Hollywood Movies [Single Link][5-6 Mirrors]*Amaderforum*::..

    ..::Mega Thread for English Movies | BRRip | BDRip | *amaderforum.com*::..

    ..::Mega Thread For Hollywood Movies Dubbed in Hindi | Dual Audio's | * 1 Link Movies *::..

    ..:perating System - Softwares - Collection - [Maximum Link Size 100 Mb] [Request Here]::..

    ..:oftware Collection for Free *amaderforum.com*::..

    ..::Mega Thread for PC games || Compressed | Full iso || Single & Splitted Links || *New*::..

    ..::Brazzers.com - SITE RIP - HD - (BigTitsInUniform.com, DayWithAPornstar.com, etc)::..

    ..:elected XXX Videos For You* Premium * Brazzers * Naughty America * Regular Update*::..

    ..::Mega Thread for Adult Movie Collection | DVDRip's | Brazzers | Naughty America & More::..

    ..:avita Bhabhi - Comic Collection - Hindi - PDF::..

    ..::Mega Collections Selected Mix Pornstar Best Picture::..


 

 

Posting Permissions

  • You may not post new threads
  • You may not post replies
  • You may not post attachments
  • You may not edit your posts
  •