Results 1 to 1 of 1
  1. #1
    Hot Member www.desirulez.net
    Join Date
    Sep 2010
    Posts
    1,427

    T

    Arrow Billa (2007) Tamil HD 3D View 1CD Rip X264 AAC (FS,FF,US,WU)

    Follow us on Social Media








    Rip Info::
    Code:
    General
    
    Complete name                    : Bl.Tml.3D.View.1CD.By.Team.SD.mp4
    Format                           : MPEG-4
    Format profile                   : Base Media / Version 2
    Codec ID                         : mp42
    File size                        : 700 MiB
    Duration                         : 2h 16mn
    Overall bit rate                 : 719 Kbps
    Encoded date                     : UTC 2011-07-12 11:59:25
    Tagged date                      : UTC 2011-07-12 13:45:40
    Writing application              : HandBrake 0.9.4 2009112300
    
    Video
    
    ID                               : 1
    Format                           : AVC
    Format/Info                      : Advanced Video Codec
    Format profile                   : [email protected]
    Format settings, CABAC           : Yes
    Format settings, ReFrames        : 16 frames
    Codec ID                         : avc1
    Codec ID/Info                    : Advanced Video Coding
    Duration                         : 2h 16mn
    Bit rate mode                    : Variable
    Bit rate                         : 555 Kbps
    Width                            : 672 pixels
    Height                           : 288 pixels
    Display aspect ratio             : 2.35:1
    Frame rate mode                  : Constant
    Frame rate                       : 30.000 fps
    Color space                      : YUV
    Chroma subsampling               : 4:2:0
    Bit depth                        : 8 bits
    Scan type                        : Progressive
    Bits/(Pixel*Frame)               : 0.096
    Stream size                      : 540 MiB (77%)
    Writing library                  : x264 core 79
    Encoded date                     : UTC 2011-07-12 11:59:25
    Tagged date                      : UTC 2011-07-12 13:45:40
    Color primaries                  : BT.601-6 525, BT.1358 525, BT.1700 NTSC, SMPTE 170M
    Transfer characteristics         : BT.709-5, BT.1361
    Matrix coefficients              : BT.601-6 525, BT.1358 525, BT.1700 NTSC, SMPTE 170M
    
    Audio
    
    ID                               : 2
    Format                           : AAC
    Format/Info                      : Advanced Audio Codec
    Format profile                   : LC
    Codec ID                         : 40
    Duration                         : 2h 16mn
    Bit rate mode                    : Variable
    Bit rate                         : 160 Kbps
    Maximum bit rate                 : 231 Kbps
    Channel(s)                       : 2 channels
    Channel positions                : Front: L R
    Sampling rate                    : 48.0 KHz
    Stream size                      : 156 MiB (22%)
    Encoded date                     : UTC 2011-07-12 11:59:25
    Tagged date                      : UTC 2011-07-12 13:45:40
    Credits To Shammu4Real & Sivaranjan @ TMT [Xclusive Encode Thnx Guyz]
    Uploader :: Team SD























    Download Links::
    Code:
    http://www.filefactory.com/file/cc89ce8/n/Bl.Tml.3D.View.1CD.By.Team.SD.mp4.001
    http://www.filefactory.com/file/cc89ce4/n/Bl.Tml.3D.View.1CD.By.Team.SD.mp4.002
    http://www.filefactory.com/file/cc89ce5/n/Bl.Tml.3D.View.1CD.By.Team.SD.mp4.003
    http://www.filefactory.com/file/cc89ce6/n/Bl.Tml.3D.View.1CD.By.Team.SD.mp4.004
    
    http://www.wupload.com/file/66279883
    http://www.wupload.com/file/66279880
    http://www.wupload.com/file/66279873
    http://www.wupload.com/file/66279865
    
    http://www.uploadstation.com/file/eyahj57
    http://www.uploadstation.com/file/5N6Nmak
    http://www.uploadstation.com/file/tepzX8n
    http://www.uploadstation.com/file/m3w82yB
    All Links Are Interchangeable Join Them Using HJ Split

    Single Links::
    Code:
    http://www.filefactory.com/file/cc89cfb/n/Bl.Tml.3D.View.1CD.By.Team.SD.mp4
    
    http://www.fileserve.com/file/cuEbfRF/Bl.Tml.3D.View.1CD.By.Team.SD.mp4
    
    http://www.uploadstation.com/file/VewTJAr
    
    http://www.wupload.com/file/66280287


    Note : The Particular Content Is Not My Own Content, Got From the Vast Internet...I Am Just Sharing It Here...If Any Prob It Will Be Removed Immediately !



 

 

Posting Permissions

  • You may not post new threads
  • You may not post replies
  • You may not post attachments
  • You may not edit your posts
  •