Results 1 to 1 of 1
  1. #1
    shawn rebecca
    Guest

    Default HBO Boxing Amir Khan vs Zab Judah HDTV x264 EViLCREW

    Follow us on Social Media







    HBO Boxing Amir Khan vs Zab Judah HDTV x264 EViLCREW



    General
    Complete name : HBO.Boxing.Khan.vs.Judah.HDTV.x264-EViLCREW
    Format : Flash Video
    File size : 579 MiB
    Duration : 37mn 50s
    Overall bit rate : 2 139 Kbps

    Video
    Format : AVC
    Format/Info : Advanced Video Codec
    Format profile : [email protected]
    Format settings, CABAC : No
    Format settings, ReFrames : 3 frames
    Codec ID : 7
    Duration : 37mn 50s
    Bit rate mode : Constant
    Bit rate : 2 000 Kbps
    Width : 640 pixels
    Height : 370 pixels
    Display aspect ratio : 16:9
    Frame rate : 30.000 fps
    Stream size : 519 MiB (90%)

    Audio
    Format : MPEG Audio
    Format profile : Layer 3
    Codec ID : 2
    Codec ID/Hint : MP3
    Duration : 37mn 50s
    Bit rate mode : Constant
    Bit rate : 128 Kbps
    Channel(s) : 2 channels
    Sampling rate : 44.1 KHz
    Compression mode : Lossy
    Stream size : 34.6 MiB (6%)
    Code:
    http://www.filesonic.com/file/1511856394/HBO.Boxing.Khan.vs.Judah.HDTV.x264-EViLCREW.shawnrebecca.Flv
    Code:
    http://www.fileserve.com/file/R55cfjy/HBO.Boxing.Khan.vs.Judah.HDTV.x264-EViLCREW.shawnrebecca.Flv

 

 

Posting Permissions

  • You may not post new threads
  • You may not post replies
  • You may not post attachments
  • You may not edit your posts
  •