Results 1 to 1 of 1
  1. #1
    Hot Member www.desirulez.net
    Join Date
    Oct 2010
    Posts
    859

    T

    Thumbs up Billa (2007) - Tamil - 3D HD - 1/2DVD - Rip - XviD - AC3 - [TMT]

    Follow us on Social Media









    Rip Info::

    Code:
    Format                           : AVI
    Format/Info                      : Audio Video Interleave
    Format profile                   : OpenDML
    File size                        : 2.59 GiB
    Duration                         : 2h 16mn
    Overall bit rate                 : 2 728 Kbps
    
    Video
    ID                               : 0
    Format                           : AVC
    Format/Info                      : Advanced Video Codec
    Format profile                   : [email protected]
    Format settings, CABAC           : No
    Format settings, ReFrames        : 1 frame
    Format settings, GOP             : M=1, N=25
    Codec ID                         : H264
    Duration                         : 2h 16mn
    Bit rate                         : 2 520 Kbps
    Width                            : 800 pixels
    Height                           : 480 pixels
    Display aspect ratio             : 1.667
    Frame rate                       : 30.000 fps
    Color space                      : YUV
    Chroma subsampling               : 4:2:0
    Bit depth                        : 8 bits
    Scan type                        : Progressive
    Bits/(Pixel*Frame)               : 0.219
    Stream size                      : 2.39 GiB (92%)
    
    Audio
    ID                               : 1
    Format                           : AC-3
    Format/Info                      : Audio Coding 3
    Mode extension                   : CM (complete main)
    Codec ID                         : 2000
    Duration                         : 2h 16mn
    Bit rate mode                    : Constant
    Bit rate                         : 192 Kbps
    Channel(s)                       : 2 channels
    Channel positions                : Front: L R
    Sampling rate                    : 48.0 KHz
    Bit depth                        : 16 bits
    Compression mode                 : Lossy
    Stream size                      : 187 MiB (7%)
    Alignment                        : Aligned on interleaves
    Interleave, duration             : 32 ms (0.96 video frame)
    Interleave, preload duration     : 32 ms

    Credits To Shammu & Sivaranjan @ TMT


















    Code:
    http://www.wupload.com/file/65200997/Billa.2007.Tml.3D.DVD.SDL.avi.001
    http://www.wupload.com/file/65200998/Billa.2007.Tml.3D.DVD.SDL.avi.002
    http://www.wupload.com/file/65200999/Billa.2007.Tml.3D.DVD.SDL.avi.003
    http://www.wupload.com/file/65201000/Billa.2007.Tml.3D.DVD.SDL.avi.004
    http://www.wupload.com/file/65201001/Billa.2007.Tml.3D.DVD.SDL.avi.005
    http://www.wupload.com/file/65201002/Billa.2007.Tml.3D.DVD.SDL.avi.006
    http://www.wupload.com/file/65201003/Billa.2007.Tml.3D.DVD.SDL.avi.007
    http://www.wupload.com/file/65201004/Billa.2007.Tml.3D.DVD.SDL.avi.008
    http://www.wupload.com/file/65201005/Billa.2007.Tml.3D.DVD.SDL.avi.009
    http://www.wupload.com/file/65201006/Billa.2007.Tml.3D.DVD.SDL.avi.010
    http://www.wupload.com/file/65201007/Billa.2007.Tml.3D.DVD.SDL.avi.011
    http://www.wupload.com/file/65201008/Billa.2007.Tml.3D.DVD.SDL.avi.012
    http://www.wupload.com/file/65201009/Billa.2007.Tml.3D.DVD.SDL.avi.013
    http://www.wupload.com/file/65201010/Billa.2007.Tml.3D.DVD.SDL.avi.014

 

 

Posting Permissions

  • You may not post new threads
  • You may not post replies
  • You may not post attachments
  • You may not edit your posts
  •