Results 1 to 1 of 1
  1. #1
    Banned www.desirulez.net
    Join Date
    Jun 2011
    Posts
    229

    T

    Post Walking Tall 720p in Hindi ~JAGJIT639~KHARAY-=KSRR=-

    Follow us on Social Media








    Walking Tall 720p in Hindi ~JAGJIT639~KHARAY-=KSRR=-





    Walking Tall (2004) - IMDb

    GENERAL INFO:

    General

    Format : Matroska
    File size : 685 MiB
    Duration : 1h 24mn
    Overall bit rate : 1 128 Kbps
    Encoded date : UTC 2011-07-10 11:41:43
    Writing application : AVSMatroskaFile
    Writing library : libebml v0.7.7 + libmatroska v0.8.1

    Video
    ID : 1
    Format : AVC
    Format/Info : Advanced Video Codec
    Format profile : [email protected]
    Format settings, CABAC : Yes
    Format settings, ReFrames : 1 frame
    Codec ID : V_MPEG4/ISO/AVC
    Duration : 1h 24mn
    Bit rate : 913 Kbps
    Width : 1 280 pixels
    Height : 544 pixels
    Display aspect ratio : 2.35:1
    Frame rate : 30.000 fps
    Color space : YUV
    Chroma subsampling : 4:2:0
    Bit depth : 8 bits
    Scan type : Progressive
    Bits/(Pixel*Frame) : 0.044
    Stream size : 555 MiB (81%)

    Audio
    ID : 2
    Format : MPEG Audio
    Format version : Version 1
    Format profile : Layer 3
    Codec ID : A_MPEG/L3
    Codec ID/Hint : MP3
    Duration : 1h 24mn
    Bit rate mode : Constant
    Bit rate : 192 Kbps
    Channel(s) : 2 channels
    Sampling rate : 48.0 KHz
    Compression mode : Lossy
    Stream size : 117 MiB (17%)
    Writing library : LAMELAME_MAJOR_VERSI















    Code:
    http://depositfiles.com/files/lsefzg4jg

    Code:
    http://www.fileserve.com/file/TpPdse8

    Code:
    http://www.filesonic.in/file/1500009251/Walking%20Tall%20720p%20in%20Hindi%20~JAGJIT639~KHARAY-=KSRR=-.mkv

    Code:
    http://www.wupload.com/file/64032828/Walking_Tall_720p_in_Hindi_~JAGJIT639~KHARAY-=KSRR=-.mkv

 

 

Posting Permissions

  • You may not post new threads
  • You may not post replies
  • You may not post attachments
  • You may not edit your posts
  •