Results 1 to 1 of 1
  1. #1

    Thumbs up DJ Man & Fatal - Hip Hop Video Mix

    Follow us on Social Media







    DJ Man & Fatal - Hip Hop Video Mix

    INFO :
    Code:
    Format                           : MPEG-PS
    File size                        : 4 140 MiB
    Duration                         : 1h 52mn 10s
    Overall bit rate                 : 5 210 Kbps
    Writing library                  : Apple MPEG-2 Encoder v483-20050527 [5000000 168253 R7500000 w3 e2s E0 s0x10002 I V0x0]
    
    Video
    ID                               : 224 (0xE0)
    Format                           : MPEG Video
    Format version                   : Version 2
    Format profile                   : [email protected]
    Format settings, BVOP            : Yes
    Format settings, Matrix          : Custom
    Format settings, GOP             : M=3, N=12
    Bit rate mode                    : Variable
    Bit rate                         : 4 915 Kbps
    Maximum bit rate                 : 7 500 Kbps
    Width                            : 720 pixels
    Height                           : 576 pixels
    Display aspect ratio             : 4:3
    Frame rate                       : 25.000 fps
    Standard                         : PAL
    Color space                      : YUV
    Chroma subsampling               : 4:2:0
    Bit depth                        : 8 bits
    Scan type                        : Progressive
    Scan order                       : Bottom Field First
    Compression mode                 : Lossy
    Bits/(Pixel*Frame)               : 0.474
    Stream size                      : 966 MiB (94%)
    Writing library                  : Apple MPEG-2 Encoder v483-20050527 [5000000 168253 R7500000 w3 e2s E0 s0x10002 I V0x0]
    
    Audio
    ID                               : 189 (0xBD)-128 (0x80)
    Format                           : AC-3
    Format/Info                      : Audio Coding 3
    Mode extension                   : CM (complete main)
    Muxing mode                      : DVD-Video
    Bit rate mode                    : Constant
    Bit rate                         : 192 Kbps
    Channel(s)                       : 2 channels
    Channel positions                : Front: L R
    Sampling rate                    : 48.0 KHz
    Bit depth                        : 16 bits
    Compression mode                 : Lossy
    Stream size                      : 37.7 MiB (4%)
    
    Recovery : +5%
    Cover : Yes
    Compression method : Best
    Type archive : Rar (4x957MB + 1x376MB)
    
    Tracklist:- Cover screen
    FILESERVE ENCRYPT LINKS
    ( Click'n'Load with JDownloader )

    Code:
     http://u.bb/FrU
    HELLSHARE ENCRYPT LINKS
    ( Weblinks, Click'n'Load, DLC, CCF, RSDF )

    Code:
    http://u.bb/FrV
    ...copy link in browser, wait 5s, click on "SKIP AD", click on "ClickŽnŽLoad" or other and download...

    >>LINKS ARE INTERCHANGEABLE<<
    nO pASS
    ...YOU CAN SHARE MY UPLOADS...

 

 

Posting Permissions

  • You may not post new threads
  • You may not post replies
  • You may not post attachments
  • You may not edit your posts
  •