Results 1 to 1 of 1
  1. #1
    dR Rockers www.desirulez.net
    Join Date
    Apr 2011
    Posts
    687

    T

    Default Zindagi Na Milegi Dobara (2011) -1CD - CamRip -MPG -YAMRAAJ - [ FS / FSC /FD / WU ]

    Follow us on Social Media










    Code:
    Format : MPEG-PS
    File size : 688 MiB
    Duration : 1h 46mn
    Overall bit rate : 903 Kbps
    Writing library : encoded by TMPGEnc Video Mastering Works 5 Version. 5.0.5.32
    
    Video
    ID : 224 (0xE0)
    Format : MPEG Video
    Format version : Version 1
    Format settings, BVOP : Yes
    Format settings, Matrix : Default
    Duration : 1h 46mn
    Bit rate mode : Variable
    Bit rate : 826 Kbps
    Width : 352 pixels
    Height : 288 pixels
    Display aspect ratio : 4:3
    Frame rate : 25.000 fps
    Standard : PAL
    Color space : YUV
    Bit depth : 8 bits
    Scan type : Progressive
    Compression mode : Lossy
    Bits/(Pixel*Frame) : 0.326
    Stream size : 626 MiB (91%)
    Writing library : TMPGEnc Video Mastering Works 5 Version. 5.0.5.32
    
    Audio
    ID : 192 (0xC0)
    Format : MPEG Audio
    Format version : Version 1
    Format profile : Layer 2
    Duration : 1h 46mn
    Bit rate mode : Constant
    Bit rate : 64.0 Kbps
    Channel(s) : 2 channels
    Sampling rate : 48.0 KHz
    Compression mode : Lossy
    Stream size : 48.8 MiB (7%)
















    Code:
    http://www.filedino.com/v20u2z4uwuzk


    Code:
    http://www.wupload.com/file/57520708/ZinNagibara-2011.mpg



    Code:
    http://www.filesonic.com/file/1452627721/ZinNagibara-2011.mpg


    Code:
    http://www.fileserve.com/file/GNvhMGN/ZinNagibara-2011.mpg







    Code:
    https://www.filedino.com/2o0c4ijgwfu9
    https://www.filedino.com/v9yu15ab4d7y
    https://www.filedino.com/z2eoqvb2e7an
    https://www.filedino.com/dk0zptdzo8zx



    Code:
    http://www.wupload.com/file/57522318/ZinNagibara-2011.mpg.001
    http://www.wupload.com/file/57522307/ZinNagibara-2011.mpg.002
    http://www.wupload.com/file/57522302/ZinNagibara-2011.mpg.003
    http://www.wupload.com/file/57522320/ZinNagibara-2011.mpg.004


    Code:
    http://www.filesonic.com/file/1452619044/ZinNagibara-2011.mpg.001
    http://www.filesonic.com/file/1452618874/ZinNagibara-2011.mpg.002
    http://www.filesonic.com/file/1452619024/ZinNagibara-2011.mpg.003
    http://www.filesonic.com/file/1452618804/ZinNagibara-2011.mpg.004
    [/code]



 

 

Posting Permissions

  • You may not post new threads
  • You may not post replies
  • You may not post attachments
  • You may not edit your posts
  •