Results 1 to 1 of 1
  1. #1
    Banned www.desirulez.net
    Join Date
    Jun 2011
    Posts
    229

    T

    Post 3 SuperHit Comedy Movie in 1DVD-Deadman[TDT]

    Follow us on Social Media








    3 SuperHit Comedy Movie in 1DVD-Deadman[TDT]



    Code:
    Format                           : Matroska
    File size                        : 618 MiB
    Duration                         : 1h 47mn
    Overall bit rate                 : 801 Kbps
    Movie name                       : The Hangover (2009) Brrip 720p (Dual-Audio)-Deadman[TDT]
    Encoded date                     : UTC 2011-07-13 11:37:54
    Writing application              : mkvmerge v4.4.0 ('Die Wiederkehr') built on Oct 31 2010 21:52:48
    Writing library                  : libebml v1.0.0 + libmatroska v1.0.0
    
    Video
    ID                               : 1
    Format                           : AVC
    Format/Info                      : Advanced Video Codec
    Format profile                   : [email protected]
    Format settings, CABAC           : Yes
    Format settings, ReFrames        : 4 frames
    Muxing mode                      : Header stripping
    Codec ID                         : V_MPEG4/ISO/AVC
    Duration                         : 1h 47mn
    Nominal bit rate                 : 610 Kbps
    Width                            : 1 280 pixels
    Height                           : 544 pixels
    Display aspect ratio             : 2.35:1
    Frame rate                       : 23.976 fps
    Color space                      : YUV
    Chroma subsampling               : 4:2:0
    Bit depth                        : 8 bits
    Scan type                        : Progressive
    Bits/(Pixel*Frame)               : 0.037
    
    Audio #1
    ID                               : 2
    Format                           : AAC
    Format/Info                      : Advanced Audio Codec
    Format profile                   : HE-AAC / LC
    Codec ID                         : A_AAC
    Duration                         : 1h 47mn
    Channel(s)                       : 2 channels
    Channel positions                : Front: L R
    Sampling rate                    : 96.0 KHz / 48.0 KHz
    Compression mode                 : Lossy
    Title                            : deadman
    Language                         : English
    
    Audio #2
    ID                               : 3
    Format                           : AC-3
    Format/Info                      : Audio Coding 3
    Mode extension                   : CM (complete main)
    Muxing mode                      : Header stripping
    Codec ID                         : A_AC3
    Duration                         : 1h 47mn
    Bit rate mode                    : Constant
    Bit rate                         : 128 Kbps
    Channel(s)                       : 2 channels
    Channel positions                : Front: L R
    Sampling rate                    : 48.0 KHz
    Bit depth                        : 16 bits
    Compression mode                 : Lossy
    Stream size                      : 98.8 MiB (16%)
    Title                            : deadman
    Language                         : Hindi
    
    Format                           : Matroska
    File size                        : 540 MiB
    Duration                         : 1h 32mn
    Overall bit rate                 : 814 Kbps
    Movie name                       : Tropic Thunder (2008)-Original DVD Rip -Hindi-Deadman[TDT]
    Encoded date                     : UTC 2011-07-13 11:17:38
    Writing application              : mkvmerge v4.4.0 ('Die Wiederkehr') built on Oct 31 2010 21:52:48
    Writing library                  : libebml v1.0.0 + libmatroska v1.0.0
    
    Video
    ID                               : 1
    Format                           : AVC
    Format/Info                      : Advanced Video Codec
    Format profile                   : [email protected]
    Format settings, CABAC           : Yes
    Format settings, ReFrames        : 4 frames
    Format settings, GOP             : N=1
    Muxing mode                      : Header stripping
    Codec ID                         : V_MPEG4/ISO/AVC
    Duration                         : 1h 32mn
    Bit rate                         : 749 Kbps
    Width                            : 512 pixels
    Height                           : 270 pixels
    Display aspect ratio             : 1.896
    Frame rate                       : 25.000 fps
    Color space                      : YUV
    Chroma subsampling               : 4:2:0
    Bit depth                        : 8 bits
    Scan type                        : Progressive
    Bits/(Pixel*Frame)               : 0.217
    Stream size                      : 487 MiB (90%)
    Writing library                  : x264 core 115 r1995 c1e60b9
    
    
    Audio
    ID                               : 2
    Format                           : MPEG Audio
    Format version                   : Version 1
    Format profile                   : Layer 3
    Mode                             : Joint stereo
    Mode extension                   : MS Stereo
    Muxing mode                      : Header stripping
    Codec ID                         : A_MPEG/L3
    Codec ID/Hint                    : MP3
    Duration                         : 1h 32mn
    Bit rate mode                    : Constant
    Bit rate                         : 64.0 Kbps
    Channel(s)                       : 2 channels
    Sampling rate                    : 44.1 KHz
    Compression mode                 : Lossy
    Stream size                      : 42.5 MiB (8%)
    Title                            : deadman
    
    Format                           : Matroska
    File size                        : 342 MiB
    Duration                         : 1h 28mn
    Overall bit rate                 : 537 Kbps
    Movie name                       : Pink Panther (2006)  DVDRIp - (Dual Audio)-Deadman[TDT]
    Encoded date                     : UTC 2011-07-13 11:35:47
    Writing application              : mkvmerge v4.4.0 ('Die Wiederkehr') built on Oct 31 2010 21:52:48
    Writing library                  : libebml v1.0.0 + libmatroska v1.0.0
    
    Video
    ID                               : 1
    Format                           : AVC
    Format/Info                      : Advanced Video Codec
    Format profile                   : [email protected]
    Format settings, CABAC           : Yes
    Format settings, ReFrames        : 4 frames
    Muxing mode                      : Header stripping
    Codec ID                         : V_MPEG4/ISO/AVC
    Duration                         : 1h 28mn
    Nominal bit rate                 : 224 Kbps
    Width                            : 512 pixels
    Height                           : 270 pixels
    Display aspect ratio             : 1.896
    Frame rate mode                  : Variable
    Frame rate                       : 25.000 fps
    Color space                      : YUV
    Chroma subsampling               : 4:2:0
    Bit depth                        : 8 bits
    Scan type                        : Progressive
    Bits/(Pixel*Frame)               : 0.065
    Writing library                  : x264 core 112
    
    Audio #1
    ID                               : 2
    Format                           : AAC
    Format/Info                      : Advanced Audio Codec
    Format profile                   : LC
    Codec ID                         : A_AAC
    Duration                         : 1h 28mn
    Channel(s)                       : 2 channels
    Channel positions                : Front: L R
    Sampling rate                    : 48.0 KHz
    Compression mode                 : Lossy
    Title                            : deadman
    Language                         : Hindi
    
    Audio #2
    ID                               : 3
    Format                           : AAC
    Format/Info                      : Advanced Audio Codec
    Format profile                   : LC
    Codec ID                         : A_AAC
    Duration                         : 1h 28mn
    Channel(s)                       : 2 channels
    Channel positions                : Front: L R
    Sampling rate                    : 48.0 KHz
    Compression mode                 : Lossy
    Title                            : deadman
    Language                         : English













    3.The Pink Panther (2006) DVDRIp - (Dual Audio)-Deadman[TDT]

    Depositfiles
    Code:
    http://depositfiles.com/files/r4k4if5h0
    Fileserve
    Code:
    http://www.fileserve.com/file/Nu9R8EZ
    Wupload
    Code:
    http://www.wupload.com/file/56844682/Pink_Panther_(2006)__DVDRIp_-_(Dual_Audio)-Deadman[TDT].mkv

    1. The Hangover (2009) Brrip 720p (Dual-Audio)-Deadman[TDT]

    Depositfiles
    Code:
    http://depositfiles.com/files/g7m9ayuse
    Fileserve
    Code:
    http://www.fileserve.com/file/VPg45hV
    Wupload
    Code:
    http://www.wupload.com/file/56845450/The_Hangover_(2009)_Brrip_720p_(Dual-Audio)-Deadman[TDT].mkv

    2.Tropic Thunder (2008)-Original DVD Rip -Hindi-Deadman[TDT]

    Depositfiles
    Code:
    http://depositfiles.com/files/uap3lnhva
    Fileserve
    Code:
    http://www.fileserve.com/file/WXktMgq
    Wupload
    Code:
    http://www.wupload.com/file/56847070/Tropic_Thunder_(2008)-Original_DVD_Rip_-Hindi-Deadman[TDT].mkv




 

 

Posting Permissions

  • You may not post new threads
  • You may not post replies
  • You may not post attachments
  • You may not edit your posts
  •