Results 1 to 1 of 1
  1. #1

    Thumbs up Philizz In Da Mix Vol. 2, 3 -videomegamix-(2011)

    Follow us on Social Media







    Philizz In Da Mix Vol.2 -videomegamix-(2011)[DVD5]



    INFO :
    Code:
    Format                           : MPEG-PS
    File size                        : 3 170 MiB
    Duration                         : 56mn 25s
    Overall bit rate                 : 8 063 Kbps
    
    Video
    ID                               : 224 (0xE0)
    Format                           : MPEG Video
    Format version                   : Version 2
    Format profile                   : [email protected]
    Format settings, BVOP            : Yes
    Format settings, Matrix          : Default
    Format settings, GOP             : M=3, N=12
    Bit rate                         : 7 710 Kbps
    Maximum bit rate                 : 7 754 Kbps
    Width                            : 720 pixels
    Height                           : 576 pixels
    Display aspect ratio             : 16:9
    Frame rate                       : 25.000 fps
    Standard                         : PAL
    Color space                      : YUV
    Chroma subsampling               : 4:2:0
    Bit depth                        : 8 bits
    Scan type                        : Interlaced
    Scan order                       : Bottom Field First
    Compression mode                 : Lossy
    Bits/(Pixel*Frame)               : 0.744
    Stream size                      : 979 MiB (96%)
    
    Audio
    ID                               : 189 (0xBD)-128 (0x80)
    Format                           : AC-3
    Format/Info                      : Audio Coding 3
    Mode extension                   : CM (complete main)
    Muxing mode                      : DVD-Video
    Bit rate mode                    : Constant
    Bit rate                         : 192 Kbps
    Channel(s)                       : 2 channels
    Channel positions                : Front: L R
    Sampling rate                    : 48.0 KHz
    Bit depth                        : 16 bits
    Compression mode                 : Lossy
    Delay relative to video          : -80ms
    Stream size                      : 24.4 MiB (2%)
    
    Recovery : +5%
    Cover : Yes
    Compression method : Best
    Type archive : Rar (3x957MB + 1x301MB)
    
    Tracklist:
    The Black Eyed Peas - Just Can't Get Enough
    Lady Gaga - Born This Way
    R.I.O. - Like I Love You
    DJ F.R.A.N.K. - Discotex [Yah]
    Alexis Jordan - Happiness
    RLP ft. Barbara Tucker - R.E.S.P.E.C.T.
    Bruno Mars - Grenade
    Keri Hilson - Pretty Girl Rock
    Usher - More
    Andreas Dorau - Girls In Love
    Rihanna - S&M
    Badboyz - Let's Go
    Taylor Dayne - Facing A Miracle
    Taio Cruz ft. Kylie Minogue - Higher
    Star Pilots - Heaven Can Wait
    Enrique Iglesias ft. Pitbull - Tonight
    Adele - Rolling in the Deep (Moradzo & Bassanova Bootleg)
    Michael Mind Project ft. Mandy Ventrice & Carlprit - Delirious
    Radio Killer - Lonely Heart
    Passion Fruit - The Rigga-Ding-Dong-Song
    Ian Carey ft. Snoop Dogg & Bobby Anthony - Last Night
    Redroche vs. Armstrong - Make Your Move
    Chris Decay - Like that
    Don Fardon - I'm Alive
    Bob Sinclar ft. Sean Paul - Tik Tok
    Britney Spears - Hold It Against Me
    Chris Brown - Yeah 3x
    FILESERVE ENCRYPT LINKS
    ( Click'n'Load with JDownloader )

    Code:
    http://u.bb/FH4
    HELLSHARE ENCRYPT LINKS
    ( Weblinks, Click'n'Load, DLC, CCF, RSDF )

    Code:
     http://u.bb/FH5
    ...copy link in browser, wait 5s, click on "SKIP AD", click on "Click´n´Load" or other and download...

    >>LINKS ARE INTERCHANGEABLE<<
    nO pASS
    ...YOU CAN SHARE MY UPLOADS...


    . . . . . . . . . . . . . . . . . . . . . . . . . . . . . . . . . . . . . . . . . . . . . . . . . . . . . . . . . .


    Philizz In Da Mix Vol.3 -videomegamix-(2011)[DVD5]



    INFO :
    Code:
    Format                           : MPEG-PS
    File size                        : 1 024 MiB
    Duration                         : 57mn 17s
    Overall bit rate                 : 8 063 Kbps
    
    Video
    ID                               : 224 (0xE0)
    Format                           : MPEG Video
    Format version                   : Version 2
    Format profile                   : [email protected]
    Format settings, BVOP            : Yes
    Format settings, Matrix          : Default
    Format settings, GOP             : M=3, N=12
    Bit rate                         : 7 711 Kbps
    Maximum bit rate                 : 7 754 Kbps
    Width                            : 720 pixels
    Height                           : 576 pixels
    Display aspect ratio             : 16:9
    Frame rate                       : 25.000 fps
    Standard                         : PAL
    Color space                      : YUV
    Chroma subsampling               : 4:2:0
    Bit depth                        : 8 bits
    Scan type                        : Interlaced
    Scan order                       : Bottom Field First
    Compression mode                 : Lossy
    Bits/(Pixel*Frame)               : 0.744
    Stream size                      : 979 MiB (96%)
    
    Audio
    ID                               : 189 (0xBD)-128 (0x80)
    Format                           : AC-3
    Format/Info                      : Audio Coding 3
    Mode extension                   : CM (complete main)
    Muxing mode                      : DVD-Video
    Bit rate mode                    : Constant
    Bit rate                         : 192 Kbps
    Channel(s)                       : 2 channels
    Channel positions                : Front: L R
    Sampling rate                    : 48.0 KHz
    Bit depth                        : 16 bits
    Compression mode                 : Lossy
    Delay relative to video          : -80ms
    Stream size                      : 24.4 MiB (2%)
    
    Recovery : +5%
    Cover : Yes
    Compression method : Best
    Type archive : Rar (3x957MB + 1x361MB)
    
    Tracklist :
    LMFAO ft. Lauren Bennett & GoonRock - Party Rock Anthem
    Bob Sinclar & Raffaela Carrà - Far l'Amore
    Tony Junior & Nicolas Nox - You Ain't Seen Nothing Yet
    Alexandra Stan - Mr Saxobeat
    Bingo Players - Cry (Just A Little)
    David Latour ft. Hi-Mode & Narco - Venus vs. Mars
    Alexis Jordan - Good Girl (Freemasons Mix)
    Swedish House Mafia - Save The World
    Chris Brown & Benny Benassi - Beautiful People
    Basto - Live Tonight
    Cascada - San Francisco
    Alex Gaudino & Kelly Rowland - What A Feeling
    Michael Feiner & Eric Amarillo - El Matador
    The Black Eyed Peas - Don't Stop The Party
    Bryce ft. Carlprit - Dance With Me
    Twenty 4 Seven ft. Stay-C & Li-Ann - Slave to the Music
    Snoop Dogg ft. David Guetta - Sweat
    Pitbull ft. Ne-Yo, Afrojack & Nayer - Give Me Everything
    David Guetta - Where Them Girlz At
    R.I.O. - Miss Sunshine
    Dance Nation - Sunshine
    Lady Gaga - Judas
    Britney Spears - Till The World Ends (Jump Smokers Mix)
    Cassey Doreen - Girls Just Want To Have Fun
    Beyoncé - Run The World (Girls) (2nd Adventure Mix)
    The Ready Set - Love Like Woe (Digital Dog Mix)
    FILESERVE ENCRYPT LINKS
    ( Click'n'Load with JDownloader )

    Code:
    http://u.bb/FH6
    HELLSHARE ENCRYPT LINKS
    ( Weblinks, Click'n'Load, DLC, CCF, RSDF )

    Code:
    http://u.bb/FH8
    ...copy link in browser, wait 5s, click on "SKIP AD", click on "Click´n´Load" or other and download...

    >>LINKS ARE INTERCHANGEABLE<<
    nO pASS
    ...YOU CAN SHARE MY UPLOADS...

 

 

Posting Permissions

  • You may not post new threads
  • You may not post replies
  • You may not post attachments
  • You may not edit your posts
  •