Results 1 to 1 of 1
  1. #1
    dR Rockers www.desirulez.net
    Join Date
    Jun 2011
    Posts
    2,808

    T

    Default Chicken Little 720p BRrip[Dual-Audio][Eng-Hindi]~BONIIN

    Follow us on Social Media










    Title............................: Chicken Little 720p BRrip[Dual-Audio][Eng-Hindi]~BONIIN
    Genre............................: Action | Comedy | Family | Fantasy | Animation
    Directer.........................: Mark Dindal
    Writer...........................: Mark Dindal, Mark Kennedy
    IMDB.............................: Lilla kycklingen (2005) - IMDb
    year.............................: 4 November 2005 (USA)
    User Rating......................: 5.8/10 (17,638 votes)
    Awards...........................: 3 wins & 13 nominations
    VIDEO Source.....................: Chicken Little 1080p Bluray x264-CBGB
    File size........................: 1.38 GB
    Run time.........................: 1h 18mn
    Languages........................: English,Hindi
    Subtittle........................: English
    Ripper...........................: BONIIN[BOW]



    Video
    ID : 1
    Format : AVC-mkv
    Format/Info : H264-Advanced Video Codec
    Format profile : [email protected]
    Format settings, CABAC : Yes
    Format settings, ReFrames : 3 frames
    Muxing mode : Container [email protected]
    Codec ID : V_MPEG4/ISO/AVC
    Duration : 1h 18mn
    Bit rate : 2 101 Kbps
    Nominal bit rate : 2 076 Kbps
    Overall bit rate : 2 536 Kbps
    Width : 1 280 pixels
    Height : 720 pixels
    Display aspect ratio : 16:9
    Frame rate : 25.000 fps
    Original frame rate : 23.976 fps
    Resolution : 8 bits
    Colorimetry : 4:2:0
    Scan type : Progressive
    Bits/(Pixel*Frame) : 0.091
    Stream size : 1.14 GiB (83%)
    Title : Ripper~Boniin
    Writing library : x264 core 98 r1649 20cbe10
    Encoding settings : cabac=1 / ref=3 / deblock=1:0:0
    ncoded date : UTC 2010-07-20 11:17:22
    Writing application : mkvmerge v3.3.0 ('Language') built on Mar 24 2010 14:59:24
    Writing library : libebml v0.8.0 + libmatroska v0.9.0



    Audio #1
    ID : 2
    Format : MPEG Audio
    Format version : Version 1
    Format profile : Layer 3
    Format_Settings_Mode : Joint stereo
    Format_Settings_ModeExtension : MS Stereo
    Codec ID : A_MPEG/L3
    Codec ID/Hint : MP3
    Duration : 1h 17mn
    Bit rate mode : Constant
    Bit rate : 128 Kbps
    Channel(s) : 2 channels
    Sampling rate : 48.0 KHz
    Stream size : 71.0 MiB (5%)
    Title : Ripper~Boniin~
    Writing library : LAME3.97
    Encoding settings : -m j -V 4 -q 2 -lowpass 17 -b 128
    Language : English



    Audio #2
    ID : 3
    Format : AC-3
    Format/Info : Audio Coding 3
    Codec ID : A_AC3
    Duration : 1h 18mn
    Bit rate mode : Constant
    Bit rate : 256 Kbps
    Channel(s) : 2 channels
    Channel positions : Front: L R
    Sampling rate : 48.0 KHz
    Video delay : 75ms
    Stream size : 143 MiB (10%)
    Title : Ripper~Boniin~256kb/s
    Language : Hindi

















    SAMPLE



 

 

Tags for this Thread

Posting Permissions

  • You may not post new threads
  • You may not post replies
  • You may not post attachments
  • You may not edit your posts
  •