Results 1 to 1 of 1
  1. #1
    Super Member
    Join Date
    May 2011

    Red face Krishna [1996] - x264 - AAC - 1 CD DVDRip - [ MDG ]

    Follow us on Social Media

    Cast -

    Sunil Shetty, Karishma Kapoor, Mohan Joshi, Tinu Anand,
    Shakti Kapoor and Om Puri.

    Name                             : Krishna 
    Format                           : MPEG-4
    Format profile                   : Base Media
    Codec ID                         : isom
    File size                        : 699 MiB
    Duration                         : 2h 41mn
    Overall bit rate                 : 604 Kbps
    ID                               : 1
    Format                           : AVC
    Format/Info                      : Advanced Video Codec
    Format profile                   : [email protected]
    Format settings, CABAC           : Yes
    Format settings, ReFrames        : 5 frames
    Codec ID                         : avc1
    Codec ID/Info                    : Advanced Video Coding
    Duration                         : 2h 41mn
    Bit rate mode                    : Variable
    Bit rate                         : 537 Kbps
    Maximum bit rate                 : 2 382 Kbps
    Width                            : 608 pixels
    Height                           : 304 pixels
    Display aspect ratio             : 2.000
    Frame rate mode                  : Constant
    Frame rate                       : 23.976 fps
    Color space                      : YUV
    Chroma subsampling               : 4:2:0
    Bit depth                        : 8 bits
    Scan type                        : Progressive
    Bits/(Pixel*Frame)               : 0.121
    Stream size                      : 621 MiB (89%)
    ID                               : 2
    Format                           : AAC
    Format/Info                      : Advanced Audio Codec
    Format version                   : Version 4
    Format profile                   : LC
    Format settings, SBR             : Yes
    Format settings, PS              : No
    Codec ID                         : 40
    Duration                         : 2h 41mn
    Bit rate mode                    : Variable
    Bit rate                         : 64.0 Kbps
    Maximum bit rate                 : 70.2 Kbps
    Channel(s)                       : 2 channels
    Channel positions                : Front: L R
    Sampling rate                    : 44.1 KHz
    Stream size                      : 74.0 MiB (11%)
    Source                           : DVD 
    Ripper                           : Nordmariner


    Sunil lives a common-man life with his mother & sister. He has a sweetheart in Rashmi and hopes to marry her soon but his major ambition in life is to become a pilot. So he waved goodbye to all his loved-ones to go for his last test drive. On the way he got himself entangled in a drug deal, arrested and sentenced to 7 years imprisonment. To make up for his jail term he is given a secret mission by Minister Amar Prabhakar and DCP Khanna namely to bring justice to three hardcore criminals, Raja, Kubra and Bhujang Rao alias Bhau. He is told to forget all loved one in his life including erasing his sweetheart name from his hand. Change his identity and name to Krishna, 3 years later he joined Raja's gang attends a party only to witnessed his sister being molested by Kubra and his gang. His mother commit suicide after learning about her daughter's helplessness. Working as a hit man for Raja, Krishna gets closer and closer to Kubra, gathers enough evidence against him and killed him in broad day light, only to find a different motive behind this mission and Minister Amar Prabhakar is not what he claims to be while Police Inspector Khote is determined to clip Krishna's criminal wing before he takes flight.



    You are Allowed to Share My Post and My Links anywhere you want 2



Posting Permissions

  • You may not post new threads
  • You may not post replies
  • You may not post attachments
  • You may not edit your posts