Results 1 to 1 of 1
  1. #1
    dR Contributor www.desirulez.net
    Join Date
    Jan 2011
    Posts
    2,299

    T

    Smile Sohni Mahiwal (1984) - 800MB - DVDRip - Xvid - [BaBa]

    Follow us on Social Media









    G
    eneral
    Complete name : Sohni Mahiwal -(1984)-Xvid-DvDRip-BaBa.avi
    Format : AVI
    Format/Info : Audio Video Interleave
    File size : 792 MiB
    Duration : 2h 28mn
    Overall bit rate : 744 Kbps

    Video
    ID : 0
    Format : MPEG-4 Visual
    Format profile : Advanced [email protected]
    Format settings, BVOP : Yes
    Format settings, QPel : No
    Format settings, GMC : No warppoints
    Format settings, Matrix : Default (H.263)
    Codec ID : XVID
    Codec ID/Hint : XviD
    Duration : 2h 28mn
    Bit rate : 619 Kbps
    Width : 576 pixels
    Height : 336 pixels
    Display aspect ratio : 16:9
    Frame rate : 25.000 fps
    Color space : YUV
    Chroma subsampling : 4:2:0
    Bit depth : 8 bits
    Scan type : Progressive
    Compression mode : Lossy
    Bits/(Pixel*Frame) : 0.128
    Stream size : 660 MiB (83%)
    Writing library : XviD 1.2.1 (UTC 2008-12-04)

    Audio
    ID : 1
    Format : MPEG Audio
    Format version : Version 1
    Format profile : Layer 3
    Codec ID : 55
    Codec ID/Hint : MP3
    Duration : 2h 28mn
    Bit rate mode : Constant
    Bit rate : 112 Kbps
    Channel(s) : 2 channels
    Sampling rate : 44.1 KHz
    Compression mode : Lossy
    Stream size : 119 MiB (15%)
    Alignment : Split accross interleaves
    Interleave, duration : 26 ms (0.65 video frame)








    Code:
    http://cramit.in/waaun2p84c8n
    OR

    Code:
    http://www.fileserve.com/file/byMbRZE

 

 

Posting Permissions

  • You may not post new threads
  • You may not post replies
  • You may not post attachments
  • You may not edit your posts
  •