Results 1 to 1 of 1
  1. #1
    Landed To DesiRulez www.desirulez.net
    Join Date
    Feb 2011
    Posts
    7

    T

    Default Dosti (1964)-AVI-MP3

    Follow us on Social Media









    Code:
    Director:
    Satyen Bose
    Writers:
    Ban Bhatt (story), Govind Moonis (dialogue), and 1 more credit 
    Stars:
    Sudhir Kumar, Sushil Kumar and Sanjay Khan

    Code:
    Format                           : AVI
    Format/Info                      : Audio Video Interleave
    File size                        : 702 MiB
    Duration                         : 2h 36mn
    Overall bit rate                 : 625 Kbps
    Writing application              : VirtualDubMod 1.5.4.1 (build
    
    2178/release)
    Writing library                  : VirtualDubMod build 2178/release
    
    Video
    ID                               : 0
    Format                           : MPEG-4 Visual
    Format settings, BVOP            : 1
    Format settings, QPel            : No
    Format settings, GMC             : No warppoints
    Format settings, Matrix          : Default (H.263)
    Muxing mode                      : Packed bitstream
    Codec ID                         : DX50
    Codec ID/Hint                    : DivX 5
    Duration                         : 2h 36mn
    Bit rate                         : 426 Kbps
    Width                            : 224 pixels
    Height                           : 176 pixels
    Display aspect ratio             : 1.273
    Frame rate                       : 25.000 fps
    Color space                      : YUV
    Chroma subsampling               : 4:2:0
    Bit depth                        : 8 bits
    Scan type                        : Progressive
    Compression mode                 : Lossy
    Bits/(Pixel*Frame)               : 0.432
    Stream size                      : 478 MiB (68%)
    Writing library                  : DivX 6.8.5 (UTC 2009-08-20)
    
    Audio
    ID                               : 1
    Format                           : MPEG Audio
    Format version                   : Version 1
    Format profile                   : Layer 3
    Codec ID                         : 55
    Codec ID/Hint                    : MP3
    Duration                         : 2h 36mn
    Bit rate mode                    : Constant
    Bit rate                         : 192 Kbps
    Channel(s)                       : 2 channels
    Sampling rate                    : 44.1 KHz
    Compression mode                 : Lossy
    Stream size                      : 215 MiB (31%)
    Alignment                        : Split accross interleaves
    Interleave, duration             : 80 ms (2.00 video frames)
    Interleave, preload duration     : 500 ms






    Code:
    http://www.wupload.com/file/38160482
    Code:
    http://www.fileserve.com/file/NsWUBB2

 

 

Posting Permissions

  • You may not post new threads
  • You may not post replies
  • You may not post attachments
  • You may not edit your posts
  •