Results 1 to 1 of 1
  1. #1
    Hot Member www.desirulez.net
    Join Date
    Oct 2010
    Posts
    859

    Thumbs up Kaam Ka Plot (2011) - DVD - SCR - Rip - X264 - MP3 - 1CD - [Team ICtV Exclusive]

    Follow us on Social Media









    Code:
    Banner...........: VENUS
    Genre............: Comedy
    Cast.............: Ranvir Shorey, Sandhya Mridul and Vinay Pathak,
    Sroty Line ......:
    Kaam ka Plot is a dramatic thriller set against the backdrop of the recent recession in India.
    
    On the face of it Dashrath Srivastava seems like any other person. He is a 36-year old marketing graduate, married with a child. Every morning he dresses up, packs his lunch and leaves for work. The only thing wrong with this picture is that Dashrath has no job.
    
    Ripper...........: IcTV GHOST
    
    Format : Matroska
    File size : 682 MiB
    Duration : 2h 54mn
    Overall bit rate : 546 Kbps
    Encoded date : UTC 2011-06-16 11:39:40
    Writing application : mkvmerge v2.2.0 ('Turn It On Again') built on Mar 4 2008 13:20:25
    Writing library : libebml v0.7.7 + libmatroska v0.8.1
    
    Video
    ID : 1
    Format : AVC
    Format/Info : Advanced Video Codec
    Format profile : [email protected]
    Format settings, CABAC : Yes
    Format settings, ReFrames : 4 frames
    Codec ID : V_MPEG4/ISO/AVC
    Duration : 2h 54mn
    Bit rate : 436 Kbps
    Width : 608 pixels
    Height : 272 pixels
    Display aspect ratio : 2.25:1
    Frame rate : 29.970 fps
    Color space : YUV
    Chroma subsampling : 4:2:0
    Bit depth : 8 bits
    Scan type : Progressive
    Bits/(Pixel*Frame) : 0.088
    Stream size : 536 MiB (79%)
    Writing library : x264 core 115 r1995 c1e60b9
    Encoding settings : cabac=1 / ref=3 / deblock=1:0:0 / analyse=0x3:0x113 / me=hex / subme=7 / psy=1 / psy_rd=1.00:0.00 / mixed_ref=1 / me_range=16 / chroma_me=1 / trellis=1 / 8x8dct=1 / cqm=0 / deadzone=21,11 / fast_pskip=1 / chroma_qp_offset=-2 / threads=6 / sliced_threads=0 / nr=0 / decimate=1 / interlaced=0 / bluray_compat=0 / constrained_intra=0 / bframes=3 / b_pyramid=2 / b_adapt=1 / b_bias=0 / direct=1 / weightb=1 / open_gop=0 / weightp=2 / keyint=250 / keyint_min=25 / scenecut=40 / intra_refresh=0 / rc_lookahead=40 / rc=2pass / mbtree=1 / bitrate=436 / ratetol=1.0 / qcomp=0.60 / qpmin=0 / qpmax=69 / qpstep=4 / cplxblur=20.0 / qblur=0.5 / ip_ratio=1.40 / aq=1:1.00
    Language : Hindi
    
    Audio
    ID : 2
    Format : MPEG Audio
    Format version : Version 1
    Format profile : Layer 3
    Mode : Joint stereo
    Mode extension : MS Stereo
    Codec ID : A_MPEG/L3
    Codec ID/Hint : MP3
    Duration : 2h 54mn
    Bit rate mode : Variable
    Bit rate : 106 Kbps
    Nominal bit rate : 128 Kbps
    Channel(s) : 2 channels
    Sampling rate : 48.0 KHz
    Compression mode : Lossy
    Stream size : 133 MiB (19%)
    Writing library : LAME3.98r
    Encoding settings : -m j -V 4 -q 2 -lowpass 17 --abr 128
    Language : Hindi


















    Code:
    http://www.wupload.com/file/34576428/Kaam.Ka.Plot.2011.1CD.DVD.SCR.X264.SDL.mkv


    Code:
    http://www.filesonic.com/file/1311852644/Kaam.Ka.Plot.2011.1CD.DVD.SCR.X264.SDL.mkv

 

 

Posting Permissions

  • You may not post new threads
  • You may not post replies
  • You may not post attachments
  • You may not edit your posts
  •