Results 1 to 1 of 1
  1. #1
    Banned www.desirulez.net
    Join Date
    Jun 2011
    Posts
    229

    T

    Post The Host (2006) DVDRip 480p - Deadman

    Follow us on Social Media








    The Host (2006) DVDRip 480p - Deadman





    Code:
    Format                           : Matroska
    File size                        : 361 MiB
    Duration                         : 1h 0mn
    Overall bit rate                 : 829 Kbps
    Movie name                       : The Host  DVDRip 480p -*First on Net* ByDeadman
    Encoded date                     : UTC 2011-06-21 07:37:35
    Writing application              : mkvmerge v4.4.0 ('Die Wiederkehr') built on Oct 31 2010 21:52:48
    Writing library                  : libebml v1.0.0 + libmatroska v1.0.0
    
    Video
    ID                               : 1
    Format                           : AVC
    Format/Info                      : Advanced Video Codec
    Format profile                   : [email protected]
    Format settings, CABAC           : Yes
    Format settings, ReFrames        : 4 frames
    Muxing mode                      : Header stripping
    Codec ID                         : V_MPEG4/ISO/AVC
    Duration                         : 1h 0mn
    Bit rate                         : 700 Kbps
    Width                            : 700 pixels
    Height                           : 390 pixels
    Display aspect ratio             : 16:9
    Frame rate                       : 25.000 fps
    Color space                      : YUV
    Chroma subsampling               : 4:2:0
    Bit depth                        : 8 bits
    Scan type                        : Progressive
    Bits/(Pixel*Frame)               : 0.103
    Stream size                      : 298 MiB (83%)
    Writing library                  : x264 core 115 r1995 c1e60b9
    Encoding settings                : cabac=1 / ref=3 / deblock=1:0:0 / analyse=0x3:0x113 / me=hex / subme=7 / psy=1 / psy_rd=1.00:0.00 / mixed_ref=1 / me_range=16 / chroma_me=1 / trellis=1 / 8x8dct=1 / cqm=0 / deadzone=21,11 / fast_pskip=1 / chroma_qp_offset=-2 / threads=6 / sliced_threads=0 / nr=0 / decimate=1 / interlaced=0 / bluray_compat=0 / constrained_intra=0 / bframes=3 / b_pyramid=2 / b_adapt=1 / b_bias=0 / direct=1 / weightb=1 / open_gop=0 / weightp=2 / keyint=250 / keyint_min=25 / scenecut=40 / intra_refresh=0 / rc_lookahead=40 / rc=2pass / mbtree=1 / bitrate=700 / ratetol=1.0 / qcomp=0.60 / qpmin=0 / qpmax=69 / qpstep=4 / cplxblur=20.0 / qblur=0.5 / ip_ratio=1.40 / aq=1:1.00
    
    Audio
    ID                               : 2
    Format                           : MPEG Audio
    Format version                   : Version 1
    Format profile                   : Layer 3
    Mode                             : Joint stereo
    Muxing mode                      : Header stripping
    Codec ID                         : A_MPEG/L3
    Codec ID/Hint                    : MP3
    Duration                         : 1h 0mn
    Bit rate mode                    : Constant
    Bit rate                         : 128 Kbps
    Channel(s)                       : 2 channels
    Sampling rate                    : 44.1 KHz
    Compression mode                 : Lossy
    Stream size                      : 55.7 MiB (15%)
    Title                            : Deadman
    Language                         : Hindi
    
    
    Format                           : Matroska
    File size                        : 350 MiB
    Duration                         : 59mn 0s
    Overall bit rate                 : 828 Kbps
    Movie name                       : The Host  DVDRip 480p -*First on Net* ByDeadman
    Encoded date                     : UTC 2011-06-21 09:03:41
    Writing application              : mkvmerge v4.4.0 ('Die Wiederkehr') built on Oct 31 2010 21:52:48
    Writing library                  : libebml v1.0.0 + libmatroska v1.0.0
    
    Video
    ID                               : 1
    Format                           : AVC
    Format/Info                      : Advanced Video Codec
    Format profile                   : [email protected]
    Format settings, CABAC           : Yes
    Format settings, ReFrames        : 4 frames
    Muxing mode                      : Header stripping
    Codec ID                         : V_MPEG4/ISO/AVC
    Duration                         : 59mn 0s
    Bit rate                         : 699 Kbps
    Width                            : 700 pixels
    Height                           : 390 pixels
    Display aspect ratio             : 16:9
    Frame rate                       : 25.000 fps
    Color space                      : YUV
    Chroma subsampling               : 4:2:0
    Bit depth                        : 8 bits
    Scan type                        : Progressive
    Bits/(Pixel*Frame)               : 0.102
    Stream size                      : 289 MiB (83%)
    Writing library                  : x264 core 115 r1995 c1e60b9
    Encoding settings                : cabac=1 / ref=3 / deblock=1:0:0 / analyse=0x3:0x113 / me=hex / subme=7 / psy=1 / psy_rd=1.00:0.00 / mixed_ref=1 / me_range=16 / chroma_me=1 / trellis=1 / 8x8dct=1 / cqm=0 / deadzone=21,11 / fast_pskip=1 / chroma_qp_offset=-2 / threads=6 / sliced_threads=0 / nr=0 / decimate=1 / interlaced=0 / bluray_compat=0 / constrained_intra=0 / bframes=3 / b_pyramid=2 / b_adapt=1 / b_bias=0 / direct=1 / weightb=1 / open_gop=0 / weightp=2 / keyint=250 / keyint_min=25 / scenecut=40 / intra_refresh=0 / rc_lookahead=40 / rc=2pass / mbtree=1 / bitrate=699 / ratetol=1.0 / qcomp=0.60 / qpmin=0 / qpmax=69 / qpstep=4 / cplxblur=20.0 / qblur=0.5 / ip_ratio=1.40 / aq=1:1.00
    
    Audio
    ID                               : 2
    Format                           : MPEG Audio
    Format version                   : Version 1
    Format profile                   : Layer 3
    Mode                             : Joint stereo
    Mode extension                   : MS Stereo
    Muxing mode                      : Header stripping
    Codec ID                         : A_MPEG/L3
    Codec ID/Hint                    : MP3
    Duration                         : 59mn 0s
    Bit rate mode                    : Constant
    Bit rate                         : 128 Kbps
    Channel(s)                       : 2 channels
    Sampling rate                    : 44.1 KHz
    Compression mode                 : Lossy
    Stream size                      : 54.0 MiB (15%)
    Title                            : deadman
    Language                         : Hindi














    DVD 1
    Code:
    http://www.fileserve.com/file/8vdua4W
    DVD 2
    Code:
    http://www.fileserve.com/file/NUwewpe


    DVD 1
    Code:
    http://www.wupload.com/file/31965953/DVD_1.mkv
    DVD 2
    Code:
    http://www.wupload.com/file/31967537/DVD_2.mkv

 

 

Posting Permissions

  • You may not post new threads
  • You may not post replies
  • You may not post attachments
  • You may not edit your posts
  •