Results 1 to 1 of 1
  1. #1
    dR Contributor www.desirulez.net
    Join Date
    Jan 2011
    Posts
    2,299

    T

    Smile The Boss of the Underworld (2008) - 1CD - DVDRip - Xvid - [BaBa]

    Follow us on Social Media









    Cast
    Mahesh Manjrekar
    Jagapathi Babu
    J. D. Chakravarthy

    Directors
    J D Chekravarthi

    Producers
    Vinayak Tambe

    Genres:
    Indian Cinema, Action & Adventure, Crime
    Language : Hindi
    Running time: : 2:26:22

    General
    Complete name : The Boss of the Underworld (2008)-Xvid-DvdRip-BaBa.avi
    Format : AVI
    Format/Info : Audio Video Interleave
    File size : 743 MiB
    Duration : 2h 26mn
    Overall bit rate : 710 Kbps

    Video
    ID : 0
    Format : MPEG-4 Visual
    Format profile : Advanced [email protected]
    Format settings, BVOP : Yes
    Format settings, QPel : No
    Format settings, GMC : No warppoints
    Format settings, Matrix : Default (H.263)
    Codec ID : XVID
    Codec ID/Hint : XviD
    Duration : 2h 26mn
    Bit rate : 570 Kbps
    Width : 560 pixels
    Height : 304 pixels
    Display aspect ratio : 16:9
    Frame rate : 25.000 fps
    Color space : YUV
    Chroma subsampling : 4:2:0
    Bit depth : 8 bits
    Scan type : Progressive
    Compression mode : Lossy
    Bits/(Pixel*Frame) : 0.134
    Stream size : 596 MiB (80%)
    Writing library : XviD 1.2.1 (UTC 2008-12-04)

    Audio
    ID : 1
    Format : MPEG Audio
    Format version : Version 1
    Format profile : Layer 3
    Codec ID : 55
    Codec ID/Hint : MP3
    Duration : 2h 26mn
    Bit rate mode : Constant
    Bit rate : 128 Kbps
    Channel(s) : 2 channels
    Sampling rate : 44.1 KHz
    Compression mode : Lossy
    Stream size : 134 MiB (18%)
    Alignment : Split accross interleaves
    Interleave, duration : 26 ms (0.65 video frame)
    Writing library : LAME







    Code:
    http://www.fileserve.com/file/DS2KmTe
    OR

    Code:
    http://cramit.in/zk8jlh2j3zzn

 

 

Posting Permissions

  • You may not post new threads
  • You may not post replies
  • You may not post attachments
  • You may not edit your posts
  •