Page 1 of 2 12 LastLast
Results 1 to 20 of 33
  1. #1
    Banned www.desirulez.net
    Join Date
    Jun 2011
    Posts
    229

    T

    Post All Time best Good Quality Dual audio Hollywood movies(Regularly Updating)

    Follow us on Social Media








    All Time best Good Quality Dual audio Hollywood movies(Regularly Updating)


    Aeon.Flux.2005.Dual Audio{English-Hindi}BRRip.aaaevilacharya





    General

    Complete name : Aeon.Flux.2005.Dual Audio{English-Hindi}BRRip.aaaevilacharya.mkv
    Format : Matroska
    File size : 449 MiB
    Duration : 1h 32mn
    Overall bit rate : 675 Kbps
    Movie name : Aeon.Flux{aaaevilacharya}
    Encoded date : UTC 2011-02-28 15:25:47

    Video
    ID : 1
    Format : AVC
    Format/Info : Advanced Video Codec
    Format profile : [email protected]
    Format settings, CABAC : Yes
    Format settings, ReFrames : 4 frames
    Muxing mode : Container [email protected]
    Codec ID : V_MPEG4/ISO/AVC
    Duration : 1h 32mn
    Nominal bit rate : 452 Kbps
    Width : 720 pixels
    Height : 304 pixels
    Display aspect ratio : 2.697
    Original display aspect ratio : 2.35:1
    Frame rate mode : Variable
    Frame rate : 23.976 fps
    Color space : YUV
    Chroma subsampling : 4:2:0
    Bit depth : 8 bits
    Scan type : Progressive
    Bits/(Pixel*Frame) : 0.086
    Title : Aeon.Flux{aaaevilacharya}
    Writing library : x264

    Audio #1

    ID : 2
    Format : AAC
    Format/Info : Advanced Audio Codec
    Format version : Version 4
    Format profile : LC
    Format settings, SBR : No
    Codec ID : A_AAC
    Duration : 1h 32mn
    Channel(s) : 2 channels
    Channel positions : Front: L R
    Sampling rate : 32.0 KHz
    Title : Aeon.Flux{aaaevilacharya}
    Language : English

    Audio #2

    ID : 3
    Format : AAC
    Format/Info : Advanced Audio Codec
    Format version : Version 4
    Format profile : LC
    Format settings, SBR : No
    Codec ID : A_AAC
    Duration : 1h 32mn
    Channel(s) : 2 channels
    Channel positions : Front: L R
    Sampling rate : 32.0 KHz
    Title : Aeon.Flux{aaaevilacharya}
    Language : Hindi















    Code:
    http://www.fileserve.com/file/eN8Zp8T

    Code:
    http://www.wupload.com/file/27630701/Aeon.Flux.2005.Dual Audio{English-Hindi}BRRip.aaaevilacharya.mkv

  2. #2
    Banned www.desirulez.net
    Join Date
    Jun 2011
    Posts
    229

    T

    Default

    Around The World in 80 Days-Dual Audio{Hindi-English}BRRip.aaaevilacharya



    General
    Complete name : Around The World in 80 Days-Dual Audio{Hindi-English}BRRip.aaaevilacharya.mkv
    Format : Matroska
    File size : 695 MiB
    Duration : 2h 0mn
    Overall bit rate : 809 Kbps
    Movie name : Around The World in 80 Days-Dual Audio{Hindi-English}BRRip.aaaevilacharya
    Encoded date : UTC 2011-06-20 21:41:00


    Video
    ID : 1
    Format : AVC
    Format/Info : Advanced Video Codec
    Format profile : [email protected]
    Format settings, CABAC : Yes
    Format settings, ReFrames : 4 frames
    Format settings, GOP : M=3, N=16
    Muxing mode : Container [email protected]
    Codec ID : V_MPEG4/ISO/AVC
    Duration : 2h 0mn
    Nominal bit rate : 623 Kbps
    Width : 704 pixels
    Height : 272 pixels
    Display aspect ratio : 2.588
    Frame rate mode : Variable
    Frame rate : 24.000 fps
    Color space : YUV
    Chroma subsampling : 4:2:0
    Bit depth : 8 bits
    Scan type : Progressive
    Bits/(Pixel*Frame) : 0.136
    Title : Around The World in 80 Days-Dual Audio{Hindi-English}BRRip.aaaevilacharya
    Writing library : x264
    Language : English


    Audio #1
    ID : 2
    Format : AAC
    Format/Info : Advanced Audio Codec
    Format version : Version 4
    Format profile : LC
    Format settings, SBR : No
    Codec ID : A_AAC
    Duration : 2h 0mn
    Channel(s) : 2 channels
    Channel positions : Front: L R
    Sampling rate : 44.1 KHz
    Title : Around The World in 80 Days-Dual Audio{Hindi-English}BRRip.aaaevilacharya
    Language : English

    Audio #2
    ID : 3
    Format : AAC
    Format/Info : Advanced Audio Codec
    Format version : Version 4
    Format profile : LC
    Format settings, SBR : No
    Codec ID : A_AAC
    Duration : 2h 0mn
    Channel(s) : 2 channels
    Channel positions : Front: L R
    Sampling rate : 44.1 KHz
    Title : Around The World in 80 Days-Dual Audio{Hindi-English}BRRip.aaaevilacharya
    Language : Hindi























    Code:
    http://www.fileserve.com/file/qyMvpjm

  3. #3
    Banned www.desirulez.net
    Join Date
    Jun 2011
    Posts
    229

    T

    Default


    Bridge.To.Terabithia.2007.Dual.Audio{English-Hindi}DVDRip.aaaevilacharya






    General

    Complete name : Bridge.To.Terabithia.2007.Dual.Audio{English-Hindi}DVDRip.aaaevilacharya.mkv
    Format : Matroska
    File size : 693 MiB
    Duration : 1h 35mn
    Overall bit rate : 1 014 Kbps
    Movie name : Bridge.To.Terabithia{aaaevilacharya}
    Encoded date : UTC 2011-01-29 15:30:33



    Video
    ID : 1
    Format : AVC
    Format/Info : Advanced Video Codec
    Format profile : [email protected]
    Format settings, CABAC : Yes
    Format settings, ReFrames : 2 frames
    Muxing mode : Container [email protected]
    Codec ID : V_MPEG4/ISO/AVC
    Duration : 1h 35mn
    Nominal bit rate : 799 Kbps
    Width : 720 pixels
    Height : 304 pixels
    Display aspect ratio : 2.35:1
    Original display aspect ratio : 2.35:1
    Frame rate : 23.976 fps
    Color space : YUV
    Chroma subsampling : 4:2:0
    Bit depth : 8 bits
    Scan type : Progressive
    Bits/(Pixel*Frame) : 0.190
    Title : Bridge.To.Terabithia
    Writing library : x264 core 79



    Audio #1
    ID : 2
    Format : AAC
    Format/Info : Advanced Audio Codec
    Format version : Version 4
    Format profile : LC
    Format settings, SBR : No
    Codec ID : A_AAC
    Duration : 1h 35mn
    Channel(s) : 2 channels
    Channel positions : Front: L R
    Sampling rate : 32.0 KHz
    Title : Bridge.To.Terabithia{aaaevilacharya}

    Language : English



    Audio #2
    ID : 3
    Format : AAC
    Format/Info : Advanced Audio Codec
    Format version : Version 4
    Format profile : LC
    Format settings, SBR : No
    Codec ID : A_AAC
    Duration : 1h 35mn
    Channel(s) : 2 channels
    Channel positions : Front: L R
    Sampling rate : 44.1 KHz
    Title : Bridge.To.Terabithia{aaaevilacharya}

    Language : Hindi
























    Code:
    http://www.fileserve.com/file/pC5DQyp

  4. #4
    Banned www.desirulez.net
    Join Date
    Jun 2011
    Posts
    229

    T

    Default


    Decoys.2.Alien.Seduction.2007.Dual Audio{English-Hindi}DVDRip.aaaevilacharya






    General
    Complete name : Decoys.2.Alien.Seduction.2007.Dual Audio{English-Hindi}DVDRip.aaaevilacharya.mkv
    Format : Matroska
    File size : 691 MiB
    Duration : 1h 30mn
    Overall bit rate : 1 072 Kbps
    Movie name : decoys 2.aaaevilacharya
    Encoded date : UTC 2011-02-03 20:50:59



    Video
    ID : 1
    Format : AVC
    Format/Info : Advanced Video Codec
    Format profile : [email protected]
    Format settings, CABAC : Yes
    Format settings, ReFrames : 2 frames
    Muxing mode : Container [email protected]
    Codec ID : V_MPEG4/ISO/AVC
    Duration : 1h 30mn
    Nominal bit rate : 860 Kbps
    Width : 736 pixels
    Height : 320 pixels
    Display aspect ratio : 2.35:1
    Frame rate : 25.000 fps
    Color space : YUV
    Chroma subsampling : 4:2:0
    Bit depth : 8 bits
    Scan type : Progressive
    Bits/(Pixel*Frame) : 0.182
    Title : decoys 2.aaaevilacharya
    Writing library : x264 core 79



    Audio #1
    ID : 2
    Format : AAC
    Format/Info : Advanced Audio Codec
    Format version : Version 4
    Format profile : LC
    Format settings, SBR : No
    Codec ID : A_AAC
    Duration : 1h 30mn
    Channel(s) : 2 channels
    Channel positions : Front: L R
    Sampling rate : 32.0 KHz
    Video delay : 28ms
    Title : decoys 2.aaaevilacharya
    Language : Hindi



    Audio #2
    ID : 3
    Format : AAC
    Format/Info : Advanced Audio Codec
    Format version : Version 4
    Format profile : LC
    Format settings, SBR : No
    Codec ID : A_AAC
    Duration : 1h 30mn
    Channel(s) : 2 channels
    Channel positions : Front: L R
    Sampling rate : 32.0 KHz
    Title : decoys 2.aaaevilacharya
    Language : English


















    Code:
    http://www.fileserve.com/file/acXxKv8

  5. #5
    Banned www.desirulez.net
    Join Date
    Jun 2011
    Posts
    229

    T

    Default


    Drive Angry 2011 Unrated DVDScr Dual Audio (Eng Hindi) Esub x264 400mb NiCkkkDoN



    Release Info
    Release Group: NiCkkkDoN (p2p)
    Release Name: Drive.Angry.2011.Unrated.DVDScr.Dual.Audio.Esub.x264.400mb-NiCkkkDoN
    Release Date: 14-05-2011
    Filename: Drive.Angry.2011.Unrated.DVDScr.Dual.Audio.Esub.x264.400mb-NiCkkkDoN.mkv
    Source: R1DVD n3Kd
    Size: 410 MiB
    Genre: Action | Fantasy | Thriller
    Video: 624×352 | AVC | 16:9 | 23.976 fps | 549 Kbps
    Audio 1: Hindi | Mp3 | 128kbps | 44.1 KHz | CAM Audio |
    Audio 2: English | AAC | 128kbps | 48.0 KHz | DVD Audio |
    Subs: English ( thx to NiCkkkDoN )
    IMDB Rating: 6.1/10 (5,700 votes)
    RT Critics: 5.3/10 ( 107 reviews)
    Directed By: Patrick Lussier
    Starring: Nicolas Cage, Amber Heard and William Fichtner
    Release Description
    A vengeful father escapes from hell and chases after the men who killed his daughter and kidnapped his granddaughter
    NiCkkkDoN's Notes
    SOURCES:

    VIDEO: R1 DVD

    n3Kd bringing you another release.......... Drive Angry
    Not much to say here folks, source was very nice and here is rip for you
    one more thing. we dont have hindi audio for unrated part. may be 2 or 3 min lol

    Enjoy














    Code:
    http://www.fileserve.com/file/5gfsanf

    Code:
    http://www.wupload.com/file/27817149/Drive.Angry.2011.Unrated.DVDScr.Dual.Audio.Esub.x264.400mb-NiCkkkDoN.mkv

  6. #6
    Banned www.desirulez.net
    Join Date
    Jun 2011
    Posts
    229

    T

    Default








    2010

    BluRayRip 720p

    Dual Audio

    Hindi,English

    -=![amit6688]!=-






    Hindi VCD Release Date 7th May 2011

    The supervillain Megamind finally conquers his nemesis, the hero Metro Man... but finds his life pointless without a hero to fight.


    Storyline
    After super-villain Megamind (Ferrell) kills his good-guy nemesis, Metro Man (Pitt), he becomes bored since there is no one left to fight. He creates a new foe, Titan (Hill), who, instead of using his powers for good, sets out to destroy the world, positioning Megamind to save the day for the first time in his life.

    Motion Picture Rating

    Rated PG for action and some language.


    Taglines:
    His brain is off the chain


    Box Office

    Budget:
    $130,000,000 (estimated)
    Opening Weekend:
    RUR 213,534,795 (Russia) (31 October 2010) (943 Screens)

    Gross:
    $163,887,757 (worldwide) (1 December 2010)

























    Code:
    http://www.fileserve.com/file/xFZ6ugW

    Code:
    http://www.wupload.com/file/27817141/Megamind (2010) 720p BlurayRip Eng-Hindi SDR-Release.mkv

  7. #7
    Banned www.desirulez.net
    Join Date
    Jun 2011
    Posts
    229

    T

    Default


    Monster-In-Law.720p.Dual Audio{English-Hindi}BRRip.aaaevilacharya



    General
    Complete name : monster-in-law. 720p.Dual Audio{English-Hindi}BRRip.aaaevilacharya_-TiRG-_.mkv
    Format : Matroska
    File size : 692 MiB
    Duration : 1h 37mn
    Overall bit rate : 996 Kbps
    Movie name : monster in law. 720p.Dual Audio{English-Hindi}BRRip.aaaevilacharya_-TiRG-_
    Encoded date : UTC 2011-05-01 00:05:00

    Video
    ID : 1
    Format : AVC
    Format/Info : Advanced Video Codec
    Format profile : [email protected]
    Format settings, CABAC : Yes
    Format settings, ReFrames : 4 frames
    Format settings, GOP : M=2, N=16
    Muxing mode : Container [email protected]
    Codec ID : V_MPEG4/ISO/AVC
    Duration : 1h 37mn
    Nominal bit rate : 795 Kbps
    Width : 1280 pixels
    Height : 544 pixels
    Display aspect ratio : 2.35:1
    Frame rate mode : Variable
    Frame rate : 25.000 fps
    Color space : YUV
    Chroma subsampling : 4:2:0
    Bit depth : 8 bits
    Scan type : Progressive
    Bits/(Pixel*Frame) : 0.046
    Title : monster in law. 720p.Dual Audio{English-Hindi}BRRip.aaaevilacharya_-TiRG-_
    Writing library : x264

    Audio #1
    ID : 2
    Format : AAC
    Format/Info : Advanced Audio Codec
    Format version : Version 4
    Format profile : LC
    Format settings, SBR : No
    Codec ID : A_AAC
    Duration : 1h 37mn
    Channel(s) : 2 channels
    Channel positions : Front: L R
    Sampling rate : 44.1 KHz
    Title : monster in law. 720p.Dual Audio{English-Hindi}BRRip.aaaevilacharya_-TiRG-_
    Language : English

    Audio #2
    ID : 3
    Format : AAC
    Format/Info : Advanced Audio Codec
    Format version : Version 4
    Format profile : LC
    Format settings, SBR : No
    Codec ID : A_AAC
    Duration : 1h 37mn
    Channel(s) : 2 channels
    Channel positions : Front: L R
    Sampling rate : 44.1 KHz
    Title : monster in law. 720p.Dual Audio{English-Hindi}BRRip.aaaevilacharya_-TiRG-_
    Language : Hindi
















    Code:
    http://www.fileserve.com/file/ZRZ9Jf4

  8. #8
    Banned www.desirulez.net
    Join Date
    Jun 2011
    Posts
    229

    T

    Default














    Release hooter 2007 720p BRRip(6CH)[Dual-Audio][Eng-Hindi]-BONIIN

    Release Date: 23 March 2007 (USA)

    Release Length: 2h 5mn

    Tagline: Yesterday was about honor. Today is about justice.

    Storyline:Bob Lee Swagger, one of the world's great marksmen and the son
    of a Congressional Medal of Honoree, is a loner living in the Rockies.
    He's left the military, having been hung out to dry in a secret Ethiopian
    mission a few years before, when he's recruited by a lisping colonel to help
    find a way that the President of the US might be assassinated in one of three
    cities in the next two weeks. He does his work, but the shot is fired notwith
    standing and Bob Lee is quickly the fall guy: wounded and hunted by thousands,
    he goes to ground and, aided by two unlikely allies, searches for the truth and
    for those who double-crossed him. All roads lead back to Ethiopia.




    Mark Wahlberg ... Bob Lee Swagger
    Michael Peña ... Nick Memphis
    Danny Glover ... Colonel Isaac Johnson
    Kate Mara ... Sarah Fenn
    Elias Koteas ... Jack Payne
    Rhona Mitra ... Alourdes Galindo
    Jonathan Walker ... Louis Dobbler
    Louis Ferreira ... Howard Purnell (as Justin Louis)
    Tate Donovan ... Russ Turner
    Rade Serbedzija ... Michael Sandor (as Rade Sherbedgia)
    Alan C. Peterson ... Officer Stanley Timmons
    Ned Beatty ... Senator Charles F. Meachum
    Lane Garrison ... Donnie Fenn
    Zak Santiago ... Senior Agent
    Michael-Ann Connor ... Junior Agent




    Title..............................: Shooter 2007 720p BRRip(6CH)[Dual-Audio][Eng-Hindi]-BONIIN
    Genre..............................: Action | Crime | Mystery | Thriller
    Idbm Link..........................: Shooter (2007) - IMDb
    User Rating........................: 7.1/10 (73,542 votes) 283 reviews|Critics:197 reviews
    Year...............................: 23 March 2007 (USA)
    Directer...........................: Antoine Fuqua
    writer.............................: Jonathan Lemkin,Stephen Hunter
    Languages..........................: English,Hindi
    Subtitles Ext......................: English
    Duration...........................: 2h 5mn
    Container..........................: Mkv
    Encoded/Profile/Level..............: 2 pass/High/[email protected]
    Type/Writing Library...............: MPEG-4 AVC/x264
    Resolution.........................: 1280x528 pixels
    Aspect Ratio/Frame Rate............: 2.40:1/23.976 fps
    Bits/(Pixel*Frame).................: 0.132
    Nominal bitrate....................: 2 138 Kbps
    Overall bitrate....................: 2 907 Kbps
    English Audio/Bit Rate.............: AAC 320 Kbps
    Hindi Audio/Bit Rate...............: AC3 448 kbps
    English Channel(s)/Sampling Rate...: 6 channels/48.0 KHz
    Hindi Channel(s)/Sampling Rate.....: 6 channels/48.0 KHz
    English Channel Position...........: Front: L C R, Rear: L R, LFE
    Hindi Channel Position.............: Front: L C R, Rear: L R, LFE
    Stream Video Size..................: 1.88 GB
    Stream Audio Size..................: English~287 MB
    Stream Audio Size..................: Hindi~403 MB
    File Size..........................: 2.55 GB
    Source.............................: Bluray 1080p AVC DTS-HD MA 5 1-CHDBits
    Team...............................: HD Desi Rocker Releases
    Encoded/Released By................: BONIIN
















    Code:
    http://www.fileserve.com/file/aemESYG

  9. #9
    Banned www.desirulez.net
    Join Date
    Jun 2011
    Posts
    229

    T

    Default


    Species II (1998) 18+[R Rated] DvD Rip Dual Audio [Hindi English]






    Format : AVI
    File size : 954 MiB
    Duration : 1h 29mn




    Video
    ID : 0
    Format : MPEG-4 Visual
    Codec ID/Hint : DivX 5
    Duration : 1h 29mn
    Bit rate : 1 241 Kbps
    Width : 848 pixels
    Height : 432 pixels
    Display aspect ratio : 1.963
    Frame rate : 25.000 fps




    Audio #1
    ID : 1
    Codec ID/Hint : MP3
    Duration : 1h 29mn
    Bit rate mode : Constant
    Bit rate : 128 Kbps
    Channel(s) : 2 channels





    Audio #2
    ID : 2
    Codec ID/Hint : MP3
    Duration : 1h 24mn
    Bit rate mode : Constant
    Bit rate : 128 Kbps
    Channel(s) : 2 channels
























    Code:
    http://www.fileserve.com/file/r3TGD4b

  10. #10
    Banned www.desirulez.net
    Join Date
    Jun 2011
    Posts
    229

    T

    Default




    Storm Seekers 2008 DVDrip Dual Audio [Hin-Eng] by imkhan -=[TDT]=-




    Code:
    http://www.imdb.com/title/tt1240941/
    Code:
    General
    Complete name                    : F:\EXDESI.COM\Storm Seekers 2008  DVDrip Dual Audio [Hin-Eng] by imkhan -=[TDT]=-\Storm Seekers 2008  DVDrip Dual Audio [Hin-Eng] by imkhan -=[TDT]=-.mkv
    Format                           : Matroska
    File size                        : 487 MiB
    Duration                         : 1h 24mn
    Overall bit rate                 : 809 Kbps
    Movie name                       : Storm Seekers 2008 DVDrip Dual Audio [Hin-Eng] by imkhan -=[TDT]=-
    Encoded date                     : UTC 2011-06-14 06:30:21
    Writing application              : mkvmerge v4.7.0 ('Just Like You Imagined') built on Apr 21 2011 01:13:14
    Writing library                  : libebml v1.2.0 + libmatroska v1.1.0
    
    Video
    ID                               : 1
    Format                           : AVC
    Format/Info                      : Advanced Video Codec
    Format profile                   : High****************L4.0
    Format settings, CABAC           : Yes
    Format settings, ReFrames        : 3 frames
    Muxing mode                      : Container  profile=Unknown****************4.0
    Codec ID                         : V_MPEG4/ISO/AVC
    Duration                         : 1h 24mn
    Width                            : 800 pixels
    Height                           : 444 pixels
    Display aspect ratio             : 16:9
    Frame rate                       : 25.000 fps
    Resolution                       : 24 bits
    Colorimetry                      : 4:2:0
    Scan type                        : Progressive
    Title                            : imkhan
    Writing library                  : x264 core 104 r1683 62997d6
    Encoding settings                : cabac=1 / ref=3 / deblock=1:0:0 /  analyse=0x3:0x133 / me=umh / subme=7 / psy=1 / psy_rd=1.00:0.00 /  mixed_ref=1 / me_range=16 / chroma_me=1 / trellis=1 / 8x8dct=1 / cqm=0 /  deadzone=21,11 / fast_pskip=1 / chroma_qp_offset=-2 / threads=6 /  sliced_threads=0 / nr=0 / decimate=1 / interlaced=0 /  constrained_intra=0 / bframes=3 / b_pyramid=0 / b_adapt=1 / b_bias=0 /  direct=1 / weightb=1 / open_gop=0 / weightp=2 / keyint=250 /  keyint_min=25 / scenecut=40 / intra_refresh=0 / rc_lookahead=40 / rc=crf  / mbtree=1 / crf=22.0 / qcomp=0.60 / qpmin=10 / qpmax=51 / qpstep=4 /  vbv_maxrate=750 / vbv_bufsize=650 / crf_max=0.0 / ip_ratio=1.40 /  aq=1:1.00 / nal_hrd=none
    Language                         : Hindi
    
    Audio #1
    ID                               : 2
    Format                           : MPEG Audio
    Format version                   : Version 1
    Format profile                   : Layer 3
    Codec ID                         : A_MPEG/L3
    Codec ID/Hint                    : MP3
    Duration                         : 1h 24mn
    Bit rate mode                    : Constant
    Bit rate                         : 96.0 Kbps
    Channel(s)                       : 2 channels
    Sampling rate                    : 44.1 KHz
    Resolution                       : 16 bits
    Video delay                      : 200ms
    Stream size                      : 57.8 MiB (12%)
    Title                            : imkhan
    Writing library                  : LAME3.98.2
    Language                         : Hindi
    
    Audio #2
    ID                               : 3
    Format                           : AAC
    Format/Info                      : Advanced Audio Codec
    Format version                   : Version 4
    Format profile                   : LC
    Format settings, SBR             : No
    Codec ID                         : A_AAC
    Duration                         : 1h 24mn
    Channel(s)                       : 2 channels
    Channel positions                : L R
    Sampling rate                    : 48.0 KHz
    Resolution                       : 16 bits
    Title                            : imkhan














    Code:
    http://www.wupload.com/file/20418112/Storm_Seekers_2008_DVDrip_Dual_Audio_[Hin-Eng]_by_imkhan_-=[TDT]=-.mkv


  11. #11
    Super Member www.desirulez.net
    Join Date
    Jun 2011
    Posts
    166

    T

    Default

    thanks for the movies..!!

  12. #12
    Banned www.desirulez.net
    Join Date
    Jun 2011
    Posts
    229

    T

    Default


    The Contractor-Dual Audio{English-Hindi}DVDRip.aaaevilacharya




    General
    Complete name : The Contractor-Dual Audio{English-Hindi}DVDRip.aaaevilacharya_-TiRG-_.mkv
    Format : Matroska
    File size : 698 MiB
    Duration : 1h 34mn
    Overall bit rate : 1 032 Kbps
    Movie name : The Contractor-Dual Audio{English-Hindi}DVDRip.aaaevilacharya_-TiRG-_
    Encoded date : UTC 2011-05-02 21:33:15

    Video
    ID : 1
    Format : AVC
    Format/Info : Advanced Video Codec
    Format profile : [email protected]
    Format settings, CABAC : Yes
    Format settings, ReFrames : 4 frames
    Muxing mode : Container [email protected]
    Codec ID : V_MPEG4/ISO/AVC
    Duration : 1h 34mn
    Nominal bit rate : 841 Kbps
    Width : 720 pixels
    Height : 352 pixels
    Display aspect ratio : 2.35:1
    Original display aspect ratio : 2.057
    Frame rate mode : Variable
    Frame rate : 25.000 fps
    Color space : YUV
    Chroma subsampling : 4:2:0
    Bit depth : 8 bits
    Scan type : Progressive
    Bits/(Pixel*Frame) : 0.133
    Title : The Contractor-Dual Audio{English-Hindi}DVDRip.aaaevilacharya_-TiRG-_
    Writing library : x264

    Audio #1
    ID : 2
    Format : AAC
    Format/Info : Advanced Audio Codec
    Format version : Version 4
    Format profile : LC
    Format settings, SBR : No
    Codec ID : A_AAC
    Duration : 1h 34mn
    Channel(s) : 2 channels
    Channel positions : Front: L R
    Sampling rate : 44.1 KHz
    Title : The Contractor-Dual Audio{English-Hindi}DVDRip.aaaevilacharya_-TiRG-_

    Language : English

    Audio #2
    ID : 3
    Format : AAC
    Format/Info : Advanced Audio Codec
    Format version : Version 4
    Format profile : LC
    Format settings, SBR : No
    Codec ID : A_AAC
    Duration : 1h 34mn
    Channel(s) : 2 channels
    Channel positions : Front: L R
    Sampling rate : 44.1 KHz
    Title : The Contractor-Dual Audio{English-Hindi}DVDRip.aaaevilacharya_-TiRG-_
    Language : Hindi

















    Code:
    http://www.fileserve.com/file/g7erABE



  13. #13
    Banned www.desirulez.net
    Join Date
    Jun 2011
    Posts
    229

    T

    Default


    The Spiderwick Chronicles 2008 Dual Audio{English-Hindi}DVDRip.aaaevilacharya



    General

    Complete name : The Spiderwick Chronicles 2008 Dual Audio{English-Hindi}DVDRip.aaaevilacharya.mkv
    Format : Matroska
    File size : 697 MiB
    Duration : 1h 35mn
    Overall bit rate : 1 018 Kbps
    Movie name : The.Spiderwick.Chronicles{aaaevilacharya}
    Encoded date : UTC 2011-03-06 19:25:30


    Video
    ID : 1
    Format : AVC
    Format/Info : Advanced Video Codec
    Format profile : [email protected]
    Format settings, CABAC : Yes
    Format settings, ReFrames : 4 frames
    Muxing mode : Container [email protected]
    Codec ID : V_MPEG4/ISO/AVC
    Duration : 1h 35mn
    Nominal bit rate : 794 Kbps
    Width : 704 pixels
    Height : 272 pixels
    Display aspect ratio : 2.35:1
    Frame rate mode : Variable
    Frame rate : 23.976 fps
    Color space : YUV
    Chroma subsampling : 4:2:0
    Bit depth : 8 bits
    Scan type : Progressive
    Bits/(Pixel*Frame) : 0.190
    Title : The.Spiderwick.Chronicles{aaaevilacharya}
    Writing library : x264


    Audio #1
    ID : 2
    Format : AAC
    Format/Info : Advanced Audio Codec
    Format version : Version 4
    Format profile : LC
    Format settings, SBR : No
    Codec ID : A_AAC
    Duration : 1h 35mn
    Channel(s) : 2 channels
    Channel positions : Front: L R
    Sampling rate : 44.1 KHz
    Title : The.Spiderwick.Chronicles{aaaevilacharya}

    Language : English

    Audio #2
    ID : 3
    Format : AAC
    Format/Info : Advanced Audio Codec
    Format version : Version 4
    Format profile : LC
    Format settings, SBR : No
    Codec ID : A_AAC
    Duration : 1h 35mn
    Channel(s) : 2 channels
    Channel positions : Front: L R
    Sampling rate : 44.1 KHz
    Title : The.Spiderwick.Chronicles{aaaevilacharya}

    Language : Hindi





















    Code:
    http://www.fileserve.com/file/XN4WU6g

  14. #14
    Banned www.desirulez.net
    Join Date
    Jun 2011
    Posts
    229

    T

    Default


    TRON: Legacy (2010) [Dual Audio] (Hindi-English) BRRip X264 [TDT]







    The son of a virtual world designer goes looking for his father and ends up inside the digital world that his father designed. He meets his father's creation turned bad and a unique ally who was born inside the digital domain of The Grid.

    Director:
    Joseph Kosinski
    Writers:
    Edward Kitsis (screenplay), Adam Horowitz (screenplay), and 6 more credits »
    Stars:
    Jeff Bridges, Garrett Hedlund and Olivia Wilde





    Jeff Bridges Jeff Bridges ... Kevin Flynn / Clu
    Garrett Hedlund Garrett Hedlund ... Sam Flynn
    Olivia Wilde Olivia Wilde ... Quorra
    Bruce Boxleitner Bruce Boxleitner ...
    Alan Bradley / TronJames Frain James Frain ... Jarvis
    Beau Garrett Beau Garrett ... Gem
    Michael Sheen Michael Sheen ... astor / Zuse
    Anis Cheurfa Anis Cheurfa ... Rinzler
    Serinda Swan Serinda Swan ... Siren #2
    Yaya DaCosta Yaya DaCosta ... Siren #3
    Elizabeth Mathis Elizabeth Mathis ... Siren #4
    Kis Yurij Kis Yurij ... Half Faced Man (as Yurij Kis)
    Conrad Coates Conrad Coates ... Bartik
    Daft Punk Daft Punk ... Masked DJ's
    Ron Selmour Ron Selmour ... Chattering Homeless Man




















    Code:
    http://www.fileserve.com/file/Tw62pk8

  15. #15
    Banned www.desirulez.net
    Join Date
    Jun 2011
    Posts
    229

    T

    Default


    Without A Paddle.2004.Dual.Audio{English-Hindi}DVDRip.aaaevilacharya





    General

    Complete name : Without A Paddle.Dual.Audio{English-Hindi}DVDRip.aaaevilacharya.mkv
    Format : Matroska
    File size : 675 MiB
    Duration : 1h 36mn
    Overall bit rate : 982 Kbps
    Movie name : Without A Paddle{aaaevilacharya}
    Encoded date : UTC 2011-02-04 23:14:56



    Video
    ID : 1
    Format : AVC
    Format/Info : Advanced Video Codec
    Format profile : [email protected]
    Format settings, CABAC : Yes
    Format settings, ReFrames : 2 frames
    Muxing mode : Container [email protected]
    Codec ID : V_MPEG4/ISO/AVC
    Duration : 1h 36mn
    Nominal bit rate : 764 Kbps
    Width : 704 pixels
    Height : 288 pixels
    Display aspect ratio : 2.500
    Original display aspect ratio : 2.462
    Frame rate : 23.976 fps
    Color space : YUV
    Chroma subsampling : 4:2:0
    Bit depth : 8 bits
    Scan type : Progressive
    Bits/(Pixel*Frame) : 0.157
    Title : Without A Paddle{aaaevilacharya}
    Writing library : x264 core 79



    Audio #1
    ID : 2
    Format : AAC
    Format/Info : Advanced Audio Codec
    Format version : Version 4
    Format profile : LC
    Format settings, SBR : No
    Codec ID : A_AAC
    Duration : 1h 36mn
    Channel(s) : 2 channels
    Channel positions : Front: L R
    Sampling rate : 44.1 KHz
    Title : Without A Paddle{aaaevilacharya}

    Language : English



    Audio #2
    ID : 3
    Format : AAC
    Format/Info : Advanced Audio Codec
    Format version : Version 4
    Format profile : LC
    Format settings, SBR : No
    Codec ID : A_AAC
    Duration : 1h 36mn
    Channel(s) : 2 channels
    Channel positions : Front: L R
    Sampling rate : 32.0 KHz
    Title : Without A Paddle{aaaevilacharya}

    Language : Hindi






















    Code:
    http://www.fileserve.com/file/FDrSAvh

  16. #16
    Banned www.desirulez.net
    Join Date
    Jun 2011
    Posts
    229

    T

    Default


    Legion (2009)x264 Dual Audio{Hindi-English}BRRip aaaevilacharya





    General
    Complete name : Legion (2009) Dual Audio{Hindi-English}BRRip.aaaevilacharya.mkv
    Format : Matroska
    File size : 707 MiB
    Duration : 1h 36mn
    Overall bit rate : 1 029 Kbps
    Movie name : Legion (2009) Dual Audio{Hindi-English}BRRip.aaaevilacharya
    Encoded date : UTC 2011-06-22 15:57:25


    Video
    ID : 1
    Format : AVC
    Format/Info : Advanced Video Codec
    Format profile : [email protected]
    Format settings, CABAC : Yes
    Format settings, ReFrames : 4 frames
    Muxing mode : Container [email protected]
    Codec ID : V_MPEG4/ISO/AVC
    Duration : 1h 36mn
    Nominal bit rate : 828 Kbps
    Width : 704 pixels
    Height : 288 pixels
    Display aspect ratio : 2.40:1
    Frame rate mode : Variable
    Frame rate : 25.000 fps
    Color space : YUV
    Chroma subsampling : 4:2:0
    Bit depth : 8 bits
    Scan type : Progressive
    Bits/(Pixel*Frame) : 0.163
    Title : Legion (2009) Dual Audio{Hindi-English}BRRip.aaaevilacharya
    Writing library : x264 core 112
    Language : English


    Audio #1
    ID : 2
    Format : AAC
    Format/Info : Advanced Audio Codec
    Format version : Version 4
    Format profile : LC
    Format settings, SBR : No
    Codec ID : A_AAC
    Duration : 1h 36mn
    Channel(s) : 2 channels
    Channel positions : Front: L R
    Sampling rate : 44.1 KHz
    Title : Legion (2009) Dual Audio{Hindi-English}BRRip.aaaevilacharya
    Language : Hindi

    Audio #2
    ID : 3
    Format : AAC
    Format/Info : Advanced Audio Codec
    Format version : Version 4
    Format profile : LC
    Format settings, SBR : No
    Codec ID : A_AAC
    Duration : 1h 36mn
    Channel(s) : 2 channels
    Channel positions : Front: L R
    Sampling rate : 44.1 KHz
    Title : Legion (2009) Dual Audio{Hindi-English}BRRip.aaaevilacharya
    Language : English



















    Code:
    http://www.fileserve.com/file/DW3gs8X

    Code:
    http://www.wupload.com/file/31994385/Legion_(2010)_Dual_Audio{Hindi-English}BRRip.aaaevilacharya.mkv

  17. #17
    Banned www.desirulez.net
    Join Date
    Jun 2011
    Posts
    229

    T

    Default


    The Host (2006) DVDRip 480p - Deadman





    Code:
    Format                           : Matroska
    File size                        : 361 MiB
    Duration                         : 1h 0mn
    Overall bit rate                 : 829 Kbps
    Movie name                       : The Host  DVDRip 480p -*First on Net* ByDeadman
    Encoded date                     : UTC 2011-06-21 07:37:35
    Writing application              : mkvmerge v4.4.0 ('Die Wiederkehr') built on Oct 31 2010 21:52:48
    Writing library                  : libebml v1.0.0 + libmatroska v1.0.0
    
    Video
    ID                               : 1
    Format                           : AVC
    Format/Info                      : Advanced Video Codec
    Format profile                   : [email protected]
    Format settings, CABAC           : Yes
    Format settings, ReFrames        : 4 frames
    Muxing mode                      : Header stripping
    Codec ID                         : V_MPEG4/ISO/AVC
    Duration                         : 1h 0mn
    Bit rate                         : 700 Kbps
    Width                            : 700 pixels
    Height                           : 390 pixels
    Display aspect ratio             : 16:9
    Frame rate                       : 25.000 fps
    Color space                      : YUV
    Chroma subsampling               : 4:2:0
    Bit depth                        : 8 bits
    Scan type                        : Progressive
    Bits/(Pixel*Frame)               : 0.103
    Stream size                      : 298 MiB (83%)
    Writing library                  : x264 core 115 r1995 c1e60b9
    Encoding settings                : cabac=1 / ref=3 / deblock=1:0:0 / analyse=0x3:0x113 / me=hex / subme=7 / psy=1 / psy_rd=1.00:0.00 / mixed_ref=1 / me_range=16 / chroma_me=1 / trellis=1 / 8x8dct=1 / cqm=0 / deadzone=21,11 / fast_pskip=1 / chroma_qp_offset=-2 / threads=6 / sliced_threads=0 / nr=0 / decimate=1 / interlaced=0 / bluray_compat=0 / constrained_intra=0 / bframes=3 / b_pyramid=2 / b_adapt=1 / b_bias=0 / direct=1 / weightb=1 / open_gop=0 / weightp=2 / keyint=250 / keyint_min=25 / scenecut=40 / intra_refresh=0 / rc_lookahead=40 / rc=2pass / mbtree=1 / bitrate=700 / ratetol=1.0 / qcomp=0.60 / qpmin=0 / qpmax=69 / qpstep=4 / cplxblur=20.0 / qblur=0.5 / ip_ratio=1.40 / aq=1:1.00
    
    Audio
    ID                               : 2
    Format                           : MPEG Audio
    Format version                   : Version 1
    Format profile                   : Layer 3
    Mode                             : Joint stereo
    Muxing mode                      : Header stripping
    Codec ID                         : A_MPEG/L3
    Codec ID/Hint                    : MP3
    Duration                         : 1h 0mn
    Bit rate mode                    : Constant
    Bit rate                         : 128 Kbps
    Channel(s)                       : 2 channels
    Sampling rate                    : 44.1 KHz
    Compression mode                 : Lossy
    Stream size                      : 55.7 MiB (15%)
    Title                            : Deadman
    Language                         : Hindi
    
    
    Format                           : Matroska
    File size                        : 350 MiB
    Duration                         : 59mn 0s
    Overall bit rate                 : 828 Kbps
    Movie name                       : The Host  DVDRip 480p -*First on Net* ByDeadman
    Encoded date                     : UTC 2011-06-21 09:03:41
    Writing application              : mkvmerge v4.4.0 ('Die Wiederkehr') built on Oct 31 2010 21:52:48
    Writing library                  : libebml v1.0.0 + libmatroska v1.0.0
    
    Video
    ID                               : 1
    Format                           : AVC
    Format/Info                      : Advanced Video Codec
    Format profile                   : [email protected]
    Format settings, CABAC           : Yes
    Format settings, ReFrames        : 4 frames
    Muxing mode                      : Header stripping
    Codec ID                         : V_MPEG4/ISO/AVC
    Duration                         : 59mn 0s
    Bit rate                         : 699 Kbps
    Width                            : 700 pixels
    Height                           : 390 pixels
    Display aspect ratio             : 16:9
    Frame rate                       : 25.000 fps
    Color space                      : YUV
    Chroma subsampling               : 4:2:0
    Bit depth                        : 8 bits
    Scan type                        : Progressive
    Bits/(Pixel*Frame)               : 0.102
    Stream size                      : 289 MiB (83%)
    Writing library                  : x264 core 115 r1995 c1e60b9
    Encoding settings                : cabac=1 / ref=3 / deblock=1:0:0 / analyse=0x3:0x113 / me=hex / subme=7 / psy=1 / psy_rd=1.00:0.00 / mixed_ref=1 / me_range=16 / chroma_me=1 / trellis=1 / 8x8dct=1 / cqm=0 / deadzone=21,11 / fast_pskip=1 / chroma_qp_offset=-2 / threads=6 / sliced_threads=0 / nr=0 / decimate=1 / interlaced=0 / bluray_compat=0 / constrained_intra=0 / bframes=3 / b_pyramid=2 / b_adapt=1 / b_bias=0 / direct=1 / weightb=1 / open_gop=0 / weightp=2 / keyint=250 / keyint_min=25 / scenecut=40 / intra_refresh=0 / rc_lookahead=40 / rc=2pass / mbtree=1 / bitrate=699 / ratetol=1.0 / qcomp=0.60 / qpmin=0 / qpmax=69 / qpstep=4 / cplxblur=20.0 / qblur=0.5 / ip_ratio=1.40 / aq=1:1.00
    
    Audio
    ID                               : 2
    Format                           : MPEG Audio
    Format version                   : Version 1
    Format profile                   : Layer 3
    Mode                             : Joint stereo
    Mode extension                   : MS Stereo
    Muxing mode                      : Header stripping
    Codec ID                         : A_MPEG/L3
    Codec ID/Hint                    : MP3
    Duration                         : 59mn 0s
    Bit rate mode                    : Constant
    Bit rate                         : 128 Kbps
    Channel(s)                       : 2 channels
    Sampling rate                    : 44.1 KHz
    Compression mode                 : Lossy
    Stream size                      : 54.0 MiB (15%)
    Title                            : deadman
    Language                         : Hindi














    DVD 1
    Code:
    http://www.fileserve.com/file/8vdua4W
    DVD 2
    Code:
    http://www.fileserve.com/file/NUwewpe


    DVD 1
    Code:
    http://www.wupload.com/file/31965953/DVD_1.mkv
    DVD 2
    Code:
    http://www.wupload.com/file/31967537/DVD_2.mkv

  18. #18
    Banned www.desirulez.net
    Join Date
    Jun 2011
    Posts
    229

    T

    Default


    The Bourne Ultimatum-720p.Dual.Audio{Hindi-English}BRRip.aaaevilacharya




    General
    Complete name : The Bourne Ultimatum (2007)720p Dual Audio{Hindi-English}BRRip.aaaevilacharya.mkv
    Format : Matroska
    File size : 1.55 GiB
    Duration : 1h 55mn{1:55:20}
    Overall bit rate : 1 930 Kbps
    Movie name : The Bourne Ultimatum (2007)720p Dual Audio{Hindi-English}BRRip.aaaevilacharya
    Encoded date : UTC 2011-06-18 01:29:54



    Video
    ID : 1
    Format : AVC
    Format/Info : Advanced Video Codec
    Format profile : [email protected]
    Format settings, CABAC : Yes
    Format settings, ReFrames : 4 frames
    Format settings, GOP : M=3, N=32
    Muxing mode : Container [email protected]
    Codec ID : V_MPEG4/ISO/AVC
    Duration : 1h 55mn{1:55:20}
    Nominal bit rate : 1 597 Kbps
    Width : 1 280 pixels
    Height : 528 pixels
    Display aspect ratio : 2.35:1
    Frame rate mode : Variable
    Frame rate : 23.976 fps
    Color space : YUV
    Chroma subsampling : 4:2:0
    Bit depth : 8 bits
    Scan type : Progressive
    Bits/(Pixel*Frame) : 0.099
    Title : The Bourne Ultimatum (2007)720p Dual Audio{Hindi-English}BRRip.aaaevilacharya
    Writing library : x264
    Language : English



    Audio #1
    ID : 2
    Format : AAC
    Format/Info : Advanced Audio Codec
    Format version : Version 4
    Format profile : LC
    Format settings, SBR : No
    Codec ID : A_AAC
    Duration : 1h 55mn{1:55:20}
    Channel(s) : 6 channels
    Channel positions : Front: L C R, Side: L R, LFE
    Sampling rate : 44.1 KHz
    Title : The Bourne Ultimatum (2007)720p Dual Audio{Hindi-English}BRRip.aaaevilacharya

    Language : English



    Audio #2
    ID : 3
    Format : AAC
    Format/Info : Advanced Audio Codec
    Format version : Version 4
    Format profile : LC
    Format settings, SBR : No
    Codec ID : A_AAC
    Duration : 1h 55mn{1:55:20}
    Channel(s) : 2 channels
    Channel positions : Front: L R
    Sampling rate : 48.0 KHz
    Video delay : 600ms
    Title : The Bourne Ultimatum (2007)720p Dual Audio{Hindi-English}BRRip.aaaevilacharya

    Language : Hindi(Uncut Audio)




















    Code:
    http://www.fileserve.com/file/dY8KUFv

    Code:
    http://www.wupload.com/file/31969018/The_Bourne_Ultimatum_(2007)720p_Dual_Audio{Hindi-English}BRRip.aaaevilacharya.mkv

  19. #19
    Banned www.desirulez.net
    Join Date
    Jun 2011
    Posts
    229

    T

    Default


    Species 4 The Awakening (2007) 18+ UNRATED DvDrip{Dual audio}[English - Hindi]





    General
    Complete name : Species The Awakening (2007)DvDrip{Dual audio}[Eng Hindi]Current_HD
    Format : AVI
    Format/Info : Audio Video Interleave
    Format profile : OpenDML
    File size : 787 MiB
    Duration : 1h 38mn
    Overall bit rate : 1 122 Kbps
    Writing application : AVI-Mux GUI 1.17.8.3, Feb 16 201019:42:50




    Video
    ID : 0
    Format : MPEG-4 Visual
    Format profile : Advanced [email protected]
    Format settings, BVOP : Yes
    Format settings, QPel : No
    Format settings, GMC : No warppoints
    Format settings, Matrix : Default (H.263)
    Muxing mode : Packed bitstream
    Codec ID : XVID
    Codec ID/Hint : XviD
    Duration : 1h 38mn
    Bit rate : 856 Kbps
    Width : 640 pixels
    Height : 352 pixels
    Display aspect ratio : 16:9
    Frame rate : 23.976 fps
    Color space : YUV
    Chroma subsampling : 4:2:0
    Bit depth : 8 bits
    Scan type : Progressive
    Bits/(Pixel*Frame) : 0.158
    Stream size : 601 MiB (76%)
    Writing library : XviD 1.2.0.dev47 (UTC 2006-11-01)



    Audio #1
    ID : 1
    Format : MPEG Audio
    Format version : Version 1
    Format profile : Layer 3
    Mode : Joint stereo
    Mode extension : MS Stereo
    Codec ID : 55
    Codec ID/Hint : MP3
    Duration : 1h 38mn
    Bit rate mode : Variable
    Bit rate : 128 Kbps
    Channel(s) : 2 channels
    Sampling rate : 48.0 KHz
    Stream size : 90.3 MiB (11%)
    Alignment : Aligned on interleaves
    Interleave, duration : 24 ms (0.58 video frame)
    Interleave, preload duration : 65 ms
    Writing library : LAME3.97
    Encoding settings : -m j -V 4 -q 7 -lowpass 17 --abr 128



    Audio #2
    ID : 2
    Format : MPEG Audio
    Format version : Version 1
    Format profile : Layer 3
    Mode : Joint stereo
    Mode extension : MS Stereo
    Codec ID : 55
    Codec ID/Hint : MP3
    Duration : 1h 38mn
    Bit rate mode : Constant
    Bit rate : 128 Kbps
    Channel(s) : 2 channels
    Sampling rate : 48.0 KHz
    Stream size : 89.7 MiB (11%)
    Alignment : Aligned on interleaves
    Interleave, duration : 767 ms (18.39 video frames)
    Interleave, preload duration : 216 ms
    Title : CurrentHD
    Writing library : LAME3.97

























    Code:
    http://www.fileserve.com/file/Vnfe3N2

    Code:
    http://www.wupload.com/file/29326551/Species_4_The_Awakening_(2007)_18+_UNRATED_DvDrip{Dual_audio}[Eng_Hindi].avi

  20. #20
    Banned www.desirulez.net
    Join Date
    Jun 2011
    Posts
    229

    T

    Default


    I Am Number Four-720p.Dual-Audio{English-Hindi}BRRip.aaaevilacharya




    General
    Complete name : I Am Number Four-720p.Dual-Audio{English-Hindi}BRRip.aaaevilacharya.mkv
    Format : Matroska
    File size : 1.45 GiB
    Duration : 1h 49mn
    Overall bit rate : 1 896 Kbps
    Movie name : I Am Number Four-720p.Dual-Audio{English-Hindi}BRRip.aaaevilacharya
    Encoded date : UTC 2011-06-14 03:13:17


    Video
    ID : 1
    Format : AVC
    Format/Info : Advanced Video Codec
    Format profile : [email protected]
    Format settings, CABAC : Yes
    Format settings, ReFrames : 4 frames
    Format settings, GOP : M=3, N=32
    Muxing mode : Container [email protected]
    Codec ID : V_MPEG4/ISO/AVC
    Duration : 1h 49mn
    Nominal bit rate : 1 781 Kbps

    Width : 1 280 pixels
    Height : 560 pixels

    Display aspect ratio : 2.35:1
    Frame rate mode : Variable
    Frame rate : 25.000 fps
    Color space : YUV
    Chroma subsampling : 4:2:0
    Bit depth : 8 bits
    Scan type : Progressive
    Bits/(Pixel*Frame) : 0.099
    Title : I Am Number Four-720p.Dual-Audio{English-Hindi}BRRip.aaaevilacharya
    Writing library : x264 core 112
    Language : English


    Audio #1
    ID : 2
    Format : AAC
    Format/Info : Advanced Audio Codec
    Format version : Version 4
    Format profile : LC
    Format settings, SBR : No
    Codec ID : A_AAC
    Duration : 1h 49mn
    Channel(s) : 2 channels
    Channel positions : Front: L R
    Sampling rate : 44.1 KHz
    Title : I Am Number Four-720p.Dual-Audio{English-Hindi}BRRip.aaaevilacharya
    Language : English

    Audio #2
    ID : 3
    Format : AAC
    Format/Info : Advanced Audio Codec
    Format version : Version 4
    Format profile : LC
    Format settings, SBR : No
    Codec ID : A_AAC
    Duration : 1h 49mn
    Channel(s) : 2 channels
    Channel positions : Front: L R
    Sampling rate : 48.0 KHz
    Title : I Am Number Four-720p.Dual-Audio{English-Hindi}BRRip.aaaevilacharya
    Language : Hindi

    screenshots















    Code:
    http://www.fileserve.com/file/p6vW44z

    Code:
    http://www.wupload.com/file/29390118/I_Am_Number_Four-720p.Dual-Audio{English-Hindi}BRRip.aaaevilacharya.mkv

 

 
Page 1 of 2 12 LastLast

Posting Permissions

  • You may not post new threads
  • You may not post replies
  • You may not post attachments
  • You may not edit your posts
  •