Results 1 to 1 of 1
  1. #1
    Banned www.desirulez.net
    Join Date
    Nov 2010
    Posts
    1,407

    T

    Cool X-Men (First Class) (2011) 1Cd TSRip Telugu Dubbed X264 AAC (FF,FK,WP,FS)

    Follow us on Social Media










    Rip Info:

    General
    Complete name : Xmen First Class (Telugu)
    Format : MPEG-4
    Format profile : Base Media
    Codec ID : isom
    File size : 696 MiB
    Duration : 2h 3mn
    Overall bit rate : 788 Kbps
    Encoded date : UTC 2011-06-18 18:45:17
    Tagged date : UTC 2011-06-18 18:45:17

    Video
    ID : 1
    Format : AVC
    Format/Info : Advanced Video Codec
    Format profile : [email protected]
    Format settings, CABAC : Yes
    Format settings, ReFrames : 4 frames
    Codec ID : avc1
    Codec ID/Info : Advanced Video Coding
    Duration : 2h 3mn
    Bit rate mode : Variable
    Bit rate : 726 Kbps
    Maximum bit rate : 3 187 Kbps
    Width : 608 pixels
    Height : 288 pixels
    Display aspect ratio : 2.2:1
    Frame rate mode : Constant
    Frame rate : 25.000 fps
    Color space : YUV
    Chroma subsampling : 4:2:0
    Bit depth : 8 bits
    Scan type : Progressive
    Bits/(Pixel*Frame) : 0.166
    Stream size : 641 MiB (92%)
    Writing library : x264 core 114 r1924 08d04a4
    Encoding settings : cabac=1 / ref=3 / deblock=1:0:0 / analyse=0x3:0x113 / me=hex / subme=7 / psy=1 / psy_rd=1.00:0.00 / mixed_ref=1 / me_range=16 / chroma_me=1 / trellis=1 / 8x8dct=1 / cqm=0 / deadzone=21,11 / fast_pskip=1 / chroma_qp_offset=-2 / threads=3 / sliced_threads=0 / nr=0 / decimate=1 / interlaced=0 / constrained_intra=0 / bframes=3 / b_pyramid=2 / b_adapt=1 / b_bias=0 / direct=1 / weightb=1 / open_gop=0 / weightp=2 / keyint=250 / keyint_min=25 / scenecut=40 / intra_refresh=0 / rc_lookahead=40 / rc=2pass / mbtree=1 / bitrate=726 / ratetol=1.0 / qcomp=0.60 / qpmin=0 / qpmax=69 / qpstep=4 / cplxblur=20.0 / qblur=0.5 / ip_ratio=1.40 / aq=1:1.00
    Encoded date : UTC 2011-06-18 16:52:16
    Tagged date : UTC 2011-06-18 18:47:09

    Audio
    ID : 2
    Format : AAC
    Format/Info : Advanced Audio Codec
    Format version : Version 4
    Format profile : LC
    Format settings, SBR : Yes
    Format settings, PS : No
    Codec ID : 40
    Duration : 2h 3mn
    Bit rate mode : Variable
    Bit rate : 60.0 Kbps
    Maximum bit rate : 65.8 Kbps
    Channel(s) : 2 channels
    Channel positions : Front: L R
    Sampling rate : 44.1 KHz
    Stream size : 53.0 MiB (8%)
    Encoded date : UTC 2011-06-18 18:47:01
    Tagged date : UTC 2011-06-18 18:47:09














    Give Credits To Team SD Where Ever You Share This Rip





    Filefactory Links:

    Code:
    http://www.filefactory.com/file/ccfa57a/n/Men.1Cd.TSRip.In.Telugu.X264.AAC.By.Team.SD.mp4.001
    http://www.filefactory.com/file/cf19a7d/n/Men.1Cd.TSRip.In.Telugu.X264.AAC.By.Team.SD.mp4.002
    http://www.filefactory.com/file/ccfa563/n/Men.1Cd.TSRip.In.Telugu.X264.AAC.By.Team.SD.mp4.003
    http://www.filefactory.com/file/ccfa561/n/Men.1Cd.TSRip.In.Telugu.X264.AAC.By.Team.SD.mp4.004
    Filekeen Links:

    Code:
    http://filekeen.com/bnjt5jhr8lqq/Men.1Cd.TSRip.In.Telugu.X264.AAC.By.Team.SD.mp4.001.html
    http://filekeen.com/kyx6au01ztzt/Men.1Cd.TSRip.In.Telugu.X264.AAC.By.Team.SD.mp4.002.html
    http://filekeen.com/4d7a30lasj28/Men.1Cd.TSRip.In.Telugu.X264.AAC.By.Team.SD.mp4.003.html
    http://filekeen.com/hi106xqiucc4/Men.1Cd.TSRip.In.Telugu.X264.AAC.By.Team.SD.mp4.004.html
    Wupload Link:

    Code:
    http://www.wupload.com/file/27427905/Men.1Cd.TSRip.In.Telugu.X264.AAC.By.Team.SD.mp4
    Fileserve Link:

    Code:
    http://www.fileserve.com/file/WeV3PGP

    All Links are InterChangeable
    Join them using HJ Split




 

 

Posting Permissions

  • You may not post new threads
  • You may not post replies
  • You may not post attachments
  • You may not edit your posts
  •