Results 1 to 1 of 1
  1. #1
    shawn rebecca
    Guest

    Default Strikeforce Overeem vs Werdum Main Event PDTV XviD Lotto

    Follow us on Social Media





    Strikeforce Overeem vs Werdum Main Event PDTV XviD Lotto



    Strikeforce.Overeem.vs.Werdum.Main.Event.PDTV.XviD-Lotto.avi
    Format : AVI
    Format/Info : Audio Video Interleave
    File size : 368 MiB
    Duration : 29mn 42s
    Overall bit rate : 1 733 Kbps
    Writing application : VirtualDubMod 1.5.10.3 | VirtualDub-Fr.org || (build 2550/release)
    Writing library : VirtualDubMod build 2550/release

    Video
    ID : 0
    Format : MPEG-4 Visual
    Format profile : Advanced [email protected]
    Format settings, BVOP : 1
    Format settings, QPel : No
    Format settings, GMC : No warppoints
    Format settings, Matrix : Default (H.263)
    Codec ID : XVID
    Codec ID/Hint : XviD
    Duration : 29mn 42s
    Bit rate : 1 594 Kbps
    Width : 672 pixels
    Height : 376 pixels
    Display aspect ratio : 16:9
    Frame rate : 29.970 fps
    Color space : YUV
    Chroma subsampling : 4:2:0
    Bit depth : 8 bits
    Scan type : Progressive
    Compression mode : Lossy
    Bits/(Pixel*Frame) : 0.210
    Stream size : 339 MiB (92%)
    Writing library : XviD 57

    Audio
    ID : 1
    Format : MPEG Audio
    Format version : Version 1
    Format profile : Layer 3
    Mode : Joint stereo
    Mode extension : MS Stereo
    Codec ID : 55
    Codec ID/Hint : MP3
    Duration : 29mn 42s
    Bit rate mode : Constant
    Bit rate : 128 Kbps
    Channel(s) : 2 channels
    Sampling rate : 48.0 KHz
    Compression mode : Lossy
    Stream size : 27.2 MiB (7%)
    Alignment : Aligned on interleaves
    Interleave, duration : 33 ms (1.00 video frame)
    Interleave, preload duration : 504 ms
    Writing library : LAME3.98r
    Encoding settings : -m j -V 4 -q 2 -lowpass 17 -b 128
    Code:
    http://www.filesonic.com/file/1258171754/Strikeforce.Overeem.vs.Werdum.Main.Event.PDTV.XviD-Lotto.avi
    Code:
    http://www.fileserve.com/file/ZDpmS9N/Strikeforce.Overeem.vs.Werdum.Main.Event.PDTV.XviD-Lotto.avi

 

 

Posting Permissions

  • You may not post new threads
  • You may not post replies
  • You may not post attachments
  • You may not edit your posts
  •