Results 1 to 1 of 1
  1. #1
    Hot Member www.desirulez.net
    Join Date
    Sep 2009
    Posts
    1,215

    T

    Thumbs up Bin Bulaaye Barathi -2011- MPG CAM - TEAM DAYN EXCLUSIVE - FIRST ON NET

    Follow us on Social Media










    Format : MPEG-PS
    File size : 782 MiB
    Duration : 2h 13mn
    Overall bit rate : 821 Kbps

    Video
    ID : 224 (0xE0)
    Format : MPEG Video
    Format version : Version 2
    Format profile : [email protected]
    Format settings, BVOP : Yes
    Format settings, Matrix : Default
    Format settings, GOP : M=3, N=15
    Duration : 2h 13mn
    Bit rate mode : Variable
    Bit rate : 700 Kbps
    Width : 352 pixels
    Height : 288 pixels
    Display aspect ratio : 4:3
    Frame rate : 25.000 fps
    Standard : PAL
    Color space : YUV
    Chroma subsampling : 4:2:0
    Bit depth : 8 bits
    Scan type : Progressive
    Compression mode : Lossy
    Bits/(Pixel*Frame) : 0.276
    Stream size : 675 MiB (86%)

    Audio
    ID : 192 (0xC0)
    Format : MPEG Audio
    Format version : Version 1
    Format profile : Layer 2
    Duration : 2h 13mn
    Bit rate mode : Constant
    Bit rate : 96.0 Kbps
    Channel(s) : 2 channels
    Sampling rate : 48.0 KHz
    Compression mode : Lossy
    Stream size : 91.4 MiB (12%)



    Code:
    http://www.fileserve.com/file/dk6WwED



 

 

Posting Permissions

  • You may not post new threads
  • You may not post replies
  • You may not post attachments
  • You may not edit your posts
  •