Results 1 to 1 of 1
  1. #1
    Banned www.desirulez.net
    Join Date
    Jan 2010
    Posts
    2,522

    T

    Default Bheja Fry 2 (2011) SCAM XviD 1CDRip P2P

    Follow us on Social Media







    Bheja Fry 2 (2011) SCAM XviD 1CDRip P2P



    Format : AVI
    Format/Info : Audio Video Interleave
    File size : 959 MiB
    Duration : 1h 56mn
    Overall bit rate : 1 154 Kbps
    Writing application : Lavf52.39.1

    Video
    ID : 0
    Format : xvid
    Codec ID : xvid
    Duration : 1h 56mn
    Bit rate : 1 077 Kbps
    Width : 620 pixels
    Height : 270 pixels
    Display aspect ratio : 2.25:1
    Frame rate : 25.000 fps
    Bits/(Pixel*Frame) : 0.257
    Stream size : 895 MiB (93%)

    Audio
    ID : 1
    Format : MPEG Audio
    Format version : Version 1
    Format profile : Layer 2
    Codec ID : 50
    Duration : 1h 56mn
    Bit rate mode : Constant
    Bit rate : 64.0 Kbps
    Channel(s) : 2 channels
    Sampling rate : 48.0 KHz
    Compression mode : Lossy
    Stream size : 53.2 MiB (6%)
    Alignment : Aligned on interleaves
    Interleave, duration : 24 ms (0.60 video frame)
    Interleave, preload duration : 24 ms









    Code:
    http://www.filesonic.com/file/1245391161/Bheja.Fry.2.2011.SCamRip.P2P.avi

    Code:
    http://www.wupload.com/file/21745447/Bheja.Fry.2.2011.SCamRip.P2P.avi

    Code:
    http://www.fileserve.com/file/TDAUE7W/Bheja.Fry.2.2011.SCamRip.P2P.avi




 

 

Posting Permissions

  • You may not post new threads
  • You may not post replies
  • You may not post attachments
  • You may not edit your posts
  •