Results 1 to 1 of 1
  1. #1
    Banned www.desirulez.net
    Join Date
    May 2011
    Posts
    17

    T

    Default Bheja Fry 2 -2011- Super Cam Rip DAYN Exclusive

    Follow us on Social Media







    X7 | UL.to | FS | RS | FSN

    Bheja Fry 2 -2011- Super Cam Rip DAYN Exclusive





    Code:
    http://www.imdb.com/title/tt1939654/


    Code:
    Format                           : AVI
    Format/Info                      : Audio Video Interleave
    File size                        : 959 MiB
    Duration                         : 1h 56mn
    Overall bit rate                 : 1 154 Kbps
    Writing application              : Lavf52.39.1
    
    Video
    ID                               : 0
    Format                           : xvid
    Codec ID                         : xvid
    Duration                         : 1h 56mn
    Bit rate                         : 1 077 Kbps
    Width                            : 620 pixels
    Height                           : 270 pixels
    Display aspect ratio             : 2.25:1
    Frame rate                       : 25.000 fps
    Bits/(Pixel*Frame)               : 0.257
    Stream size                      : 895 MiB (93%)
    
    Audio
    ID                               : 1
    Format                           : MPEG Audio
    Format version                   : Version 1
    Format profile                   : Layer 2
    Codec ID                         : 50
    Duration                         : 1h 56mn
    Bit rate mode                    : Constant
    Bit rate                         : 64.0 Kbps
    Channel(s)                       : 2 channels
    Sampling rate                    : 48.0 KHz
    Compression mode                 : Lossy
    Stream size                      : 53.2 MiB (6%)
    Alignment                        : Aligned on interleaves
    Interleave, duration             : 24 ms (0.60 video frame)
    Interleave, preload duration     : 24 ms











    Fileserve Single Links
    Code:
    http://www.fileserve.com/file/CkusTrA
    Rapidshare Single Links
    Code:
    https://rapidshare.com/files/125698713/Bheja_Fry_2__2011__Super_Cam_Rip_DAYN_Exclusive.avi
    Filesonic Single Links
    Code:
    http://www.filesonic.com/file/1244141334
    x7.to Single Links
    Code:
    http://x7.to/65hd7g
    uploaded.to Single Links
    Code:
    http://ul.to/52qx5doc

 

 

Posting Permissions

  • You may not post new threads
  • You may not post replies
  • You may not post attachments
  • You may not edit your posts
  •