Results 1 to 1 of 1
  1. #1
    Banned www.desirulez.net
    Join Date
    May 2011
    Posts
    17

    Talking West Is West {2011} {Audio Cleaned} - 1Cd Dvd Scr - Avi - Mp3 - Team RZ

    Follow us on Social Media





    X7 | UL.to | FS | RS | FSN

    West Is West {2011} {Audio Cleaned} - 1Cd Dvd Scr - Avi - Mp3 - Team RZ





    Code:
    http://www.imdb.com/title/tt1441956/


    Code:
    R!p !nfo:
    
    General
    
    Format : AVI
    Format/Info : Audio Video Interleave
    File size : 621 MiB
    Duration : 1h 38mn
    Overall bit rate : 878 Kbps
    
    Video
    
    ID : 0
    Format : MPEG-4 Visual
    Format profile : Advanced [email protected]
    Format settings, BVOP : 2
    Format settings, QPel : No
    Format settings, GMC : No warppoints
    Format settings, Matrix : Default (H.263)
    Codec ID : XVID
    Codec ID/Hint : XviD
    Duration : 1h 38mn
    Bit rate : 752 Kbps
    Width : 608 pixels
    Height : 240 pixels
    Display aspect ratio : 2.533
    Frame rate : 25.000 fps
    Color space : YUV
    Chroma subsampling : 4:2:0
    Bit depth : 8 bits
    Scan type : Progressive
    Compression mode : Lossy
    Bits/(Pixel*Frame) : 0.206
    Stream size : 532 MiB (86%)
    Writing library : XviD 1.2.1 (UTC 2008-12-04)
    
    Audio
    
    ID : 1
    Format : MPEG Audio
    Format version : Version 1
    Format profile : Layer 3
    Mode : Joint stereo
    Mode extension : MS Stereo
    Codec ID : 55
    Codec ID/Hint : MP3
    Duration : 1h 38mn
    Bit rate mode : Variable
    Bit rate : 113 Kbps
    Nominal bit rate : 128 Kbps
    Channel(s) : 2 channels
    Sampling rate : 48.0 KHz
    Compression mode : Lossy
    Stream size : 79.6 MiB (13%)
    Alignment : Aligned on interleaves
    Interleave, duration : 24 ms (0.60 video frame)
    Interleave, preload duration : 75 ms
    
    Source:Untouched NTSC [email protected] DUS
    R!pper:[email protected] RZ















    Fileserve Single Links
    Code:
    http://www.fileserve.com/file/hN7m4P8
    Rapidshare Single Links
    Code:
    https://rapidshare.com/files/424830017/West_Is_West_-_Dvd_Scr.avi
    Filesonic Single Links
    Code:
    http://www.filesonic.com/file/1243855694
    x7.to Single Links
    Code:
    http://x7.to/d2u879
    uploaded.to Single Links
    Code:
    http://ul.to/ajtzdxbn

 

 

Posting Permissions

  • You may not post new threads
  • You may not post replies
  • You may not post attachments
  • You may not edit your posts
  •