Results 1 to 12 of 12
  1. #1
    Banned www.desirulez.net
    Join Date
    Jun 2011
    Posts
    229

    T

    Post Quadralogy ,Trilogy & Duology Dual Audio [Eng-Hindi] Mega Pack [DesiruleZ]

    Follow us on Social Media







    Quadralogy ,Trilogy & Duology Dual Audio [Eng-Hindi] Mega Pack [DesiruleZ]



    Scary Movie Quadrilogy Unrated BluRay 720pDual AudioEng Hindi



    Scary Movie 2000





    Code:
    General
    Complete name : Scary Movie 2000 BluRay 720p[Dual Audio][Eng Hindi]Current_HD
    Format : Matroska
    File size : 1.49 GiB
    Duration : 1h 28mn
    Overall bit rate : 2 417 Kbps
    Encoded date : UTC 2011-04-25 05:56:48
    Writing application : mkvmerge v4.6.0 on Mar 10 2011 02:50:32
    Writing library : libebml v1.2.0


    Code:
    Video
    ID : 1
    Format : AVC
    Format/Info : Advanced Video Codec
    Format profile : [email protected]
    Format settings, CABAC : Yes
    Format settings, ReFrames : 3 frames
    Muxing mode : Header stripping
    Codec ID : V_MPEG4/ISO/AVC
    Duration : 1h 28mn
    Nominal bit rate : 2 105 Kbps
    Width : 1 280 pixels
    Height : 540 pixels
    Display aspect ratio : 2.35:1
    Frame rate : 23.976 fps
    Color space : YUV
    Chroma subsampling : 4:2:0
    Bit depth : 8 bits
    Scan type : Progressive
    Bits/(Pixel*Frame) : 0.127
    Title : CurrentHD
    Writing library : x264 core 67 r1127M 8d82fec
    Language : English


    Code:
    Audio #1
    ID : 2
    Format : AAC
    Format/Info : Advanced Audio Codec
    Format profile : HE-AAC / LC
    Codec ID : A_AAC
    Duration : 1h 28mn
    Channel(s) : 6 channels
    Channel positions : Front: L C R, Side: L R, LFE
    Sampling rate : 48.0 KHz / 24.0 KHz
    Compression mode : Lossy
    Title : CurrentHD
    Language : English


    Audio #2
    ID : 3
    Format : MPEG Audio
    Format version : Version 1
    Format profile : Layer 3
    Mode : Joint stereo
    Mode extension : MS Stereo
    Muxing mode : Header stripping
    Codec ID : A_MPEG/L3
    Codec ID/Hint : MP3
    Duration : 1h 28mn
    Bit rate mode : Constant
    Bit rate : 128 Kbps
    Channel(s) : 2 channels
    Sampling rate : 44.1 KHz
    Compression mode : Lossy
    Stream size : 80.8 MiB (5%)
    Title : CurrentHD
    Writing library : LAME3.98.2
    Language : Hindi

    Code:
    http://www.fileserve.com/file/2JgEbd8
    http://www.fileserve.com/file/ma4n2Ss
    http://www.fileserve.com/file/n2APMMm
    http://www.fileserve.com/file/swFxKEV

    Scary Movie 2




    Complete name : Scary Movie 2 2001 BluRay 720p[Dual Audio][Eng Hindi]Current_HD
    Format : Matroska
    File size : 1.44 GiB
    Duration : 1h 22mn
    Overall bit rate : 2 504 Kbps
    Encoded date : UTC 2002-01-05 00:01:36
    Writing application : mkvmerge v4.6.0
    Writing library : libebml v1.2.0



    Code:
    Video
    ID : 1
    Format : AVC
    Format/Info : Advanced Video Codec
    Format profile : [email protected]
    Format settings, CABAC : Yes
    Format settings, ReFrames : 8 frames
    Muxing mode : Header stripping
    Codec ID : V_MPEG4/ISO/AVC
    Duration : 1h 22mn
    Nominal bit rate : 2 247 Kbps
    Width : 1 280 pixels
    Height : 720 pixels
    Display aspect ratio : 16:9
    Frame rate : 24.000 fps
    Color space : YUV
    Chroma subsampling : 4:2:0
    Bit depth : 8 bits
    Scan type : Progressive
    Bits/(Pixel*Frame) : 0.102
    Title : CurrentHD
    Language : English


    Code:
    Audio #1
    ID : 2
    Format : AAC
    Format/Info : Advanced Audio Codec
    Format profile : LC
    Codec ID : A_AAC
    Duration : 1h 22mn
    Channel(s) : 2 channels
    Channel positions : Front: L R
    Sampling rate : 48.0 KHz
    Compression mode : Lossy
    Title : CurrentHD
    Language : English


    Code:
    Audio #2
    ID : 3
    Format : AAC
    Format/Info : Advanced Audio Codec
    Format profile : LC
    Codec ID : A_AAC
    Duration : 1h 22mn
    Channel(s) : 2 channels
    Channel positions : Front: L R
    Sampling rate : 44.1 KHz
    Compression mode : Lossy
    Title : CurrentHD
    Language : Hindi
    Code:
    http://www.fileserve.com/file/RRuuJTH
    http://www.fileserve.com/file/rGQvYtC
    http://www.fileserve.com/file/dZtYZfU
    http://www.fileserve.com/file/32PrmSK

    Scary Movie 3





    Code:
    Complete name : Scary Movie 3 2003 HDTVRip 720p[Dual Audio][Eng Hindi]Current_HD
    Format : Matroska
    File size : 1.41 GiB
    Duration : 1h 13mn
    Overall bit rate : 2 743 Kbps
    Movie name : Red Heat
    Encoded date : UTC 2002-01-03 22:19:14
    Writing application : mkvmerge v4.6.0
    Writing library : libebml v1.2.0


    Code:
    Video
    ID : 1
    Format : AVC
    Format/Info : Advanced Video Codec
    Format profile : [email protected]
    Format settings, CABAC : Yes
    Format settings, ReFrames : 8 frames
    Muxing mode : Header stripping
    Codec ID : V_MPEG4/ISO/AVC
    Duration : 1h 13mn
    Nominal bit rate : 2 485 Kbps
    Width : 1 280 pixels
    Height : 720 pixels
    Display aspect ratio : 16:9
    Frame rate : 25.000 fps
    Color space : YUV
    Chroma subsampling : 4:2:0
    Bit depth : 8 bits
    Scan type : Progressive
    Bits/(Pixel*Frame) : 0.108
    Title : CurrentHD
    Writing library : x264 core 80 r1376 3feaec2
    Language : English


    Code:
    Audio #1
    ID : 2
    Format : AAC
    Format/Info : Advanced Audio Codec
    Format profile : LC
    Codec ID : A_AAC
    Duration : 1h 13mn
    Channel(s) : 2 channels
    Channel positions : Front: L R
    Sampling rate : 48.0 KHz
    Compression mode : Lossy
    Title : CurrentHD
    Language : English


    Code:
    Audio #2
    ID : 3
    Format : AAC
    Format/Info : Advanced Audio Codec
    Format profile : LC
    Codec ID : A_AAC
    Duration : 1h 13mn
    Channel(s) : 2 channels
    Channel positions : Front: L R
    Sampling rate : 44.1 KHz
    Compression mode : Lossy
    Title : CurrentHD
    Language : Hindi
    Code:
    http://www.fileserve.com/file/e8mFBKJ
    http://www.fileserve.com/file/PDr4a5a
    http://www.fileserve.com/file/Kz8rNAe
    http://www.fileserve.com/file/T5RWVGU


    Scary Movie 4






    Code:
    Complete name : Scary Movie 4 2006 Unrated BluRay 720p[Dual Audio][Eng Hindi]Current_HD
    Format : Matroska
    File size : 1.42 GiB
    Duration : 1h 29mn
    Overall bit rate : 2 266 Kbps
    Encoded date : UTC 2002-01-02 08:43:20
    Writing application : mkvmerge v4.6.0
    Writing library : libebml v1.2.0


    Code:
    Video
    ID : 1
    Format : AVC
    Format/Info : Advanced Video Codec
    Format profile : [email protected]
    Format settings, CABAC : Yes
    Format settings, ReFrames : 8 frames
    Muxing mode : Header stripping
    Codec ID : V_MPEG4/ISO/AVC
    Duration : 1h 29mn
    Nominal bit rate : 2 012 Kbps
    Width : 1 280 pixels
    Height : 688 pixels
    Display aspect ratio : 1.860
    Frame rate : 23.976 fps
    Color space : YUV
    Chroma subsampling : 4:2:0
    Bit depth : 8 bits
    Scan type : Progressive
    Bits/(Pixel*Frame) : 0.095
    Title : CurrentHD
    Writing library : x264 core 80 r1376 3feaec2
    Language : English


    Code:
    Audio #1
    ID : 2
    Format : AAC
    Format/Info : Advanced Audio Codec
    Format profile : LC
    Codec ID : A_AAC
    Duration : 1h 29mn
    Channel(s) : 2 channels
    Channel positions : Front: L R
    Sampling rate : 44.1 KHz
    Compression mode : Lossy
    Title : CurrentHD
    Language : Hindi


    Code:
    Audio #2
    ID : 3
    Format : AAC
    Format/Info : Advanced Audio Codec
    Format profile : LC
    Codec ID : A_AAC
    Duration : 1h 29mn
    Channel(s) : 2 channels
    Channel positions : Front: L R
    Sampling rate : 48.0 KHz
    Compression mode : Lossy
    Title : CurrentHD
    Language : English
    Code:
    http://www.fileserve.com/file/B2h3FMx
    http://www.fileserve.com/file/uwzdTEY
    http://www.fileserve.com/file/fsf5X6g













  2. #2
    Banned www.desirulez.net
    Join Date
    Jun 2011
    Posts
    229

    T

    Default



    Spiderman Triology 720p x264 Hindi



    Screen shots















    Code:
    General
    Complete name                    : F:\Spiderman Triology 720p x264 Hindi By-Sawant12[ExDe$]\Spiderman 1 720p x264  Hindi 400Mb By-Sawant12[ExDe$]\Spiderman 1 720p  Hindi 400Mb By-Sawant12[ExDe$].mkv
    Format                           : Matroska
    File size                        : 439 MiB
    Duration                         : 1h 56mn
    Overall bit rate                 : 528 Kbps
    Movie name                       : Spiderman 1 720p  Hindi 400Mb By-Sawant12[ExDe$]
    Encoded date                     : UTC 2011-04-23 01:26:04
    Writing application              : mkvmerge v4.6.0 ('Still Crazy After All These Years') built on Mar 10 2011 02:50:32
    Writing library                  : libebml v1.2.0 + libmatroska v1.1.0
    
    Video
    ID                               : 1
    Format                           : AVC
    Format/Info                      : Advanced Video Codec
    Format profile                   : [email protected]
    Format settings, CABAC           : Yes
    Format settings, ReFrames        : 4 frames
    Muxing mode                      : Container [email protected]
    Codec ID                         : V_MPEG4/ISO/AVC
    Width                            : 1 280 pixels
    Height                           : 672 pixels
    Display aspect ratio             : 1.905
    Frame rate mode                  : Variable
    Color space                      : YUV
    Chroma subsampling               : 4:2:0
    Bit depth                        : 8 bits
    Scan type                        : Progressive
    Title                            : Ripper~SAWANT12
    Writing library                  : x264 core 115 r1937 aa21558
    Encoding settings                : cabac=1 / ref=3 / deblock=1:0:0 / analyse=0x3:0x113 / me=hex / subme=7 / psy=1 / psy_rd=1.00:0.00 / mixed_ref=1 / me_range=16 / chroma_me=1 / trellis=1 / 8x8dct=1 / cqm=0 / deadzone=21,11 / fast_pskip=1 / chroma_qp_offset=-2 / threads=3 / sliced_threads=0 / nr=0 / decimate=1 / interlaced=0 / bluray_compat=0 / constrained_intra=0 / bframes=3 / b_pyramid=2 / b_adapt=1 / b_bias=0 / direct=1 / weightb=1 / open_gop=0 / weightp=2 / keyint=250 / keyint_min=24 / scenecut=40 / intra_refresh=0 / rc_lookahead=40 / rc=crf / mbtree=1 / crf=35.0 / qcomp=0.60 / qpmin=0 / qpmax=69 / qpstep=4 / ip_ratio=1.40 / aq=1:1.00
    
    Audio
    ID                               : 2
    Format                           : AAC
    Format/Info                      : Advanced Audio Codec
    Format version                   : Version 4
    Format profile                   : LC
    Format settings, SBR             : No
    Codec ID                         : A_AAC
    Duration                         : 1h 56mn
    Channel(s)                       : 2 channels
    Channel positions                : Front: L R
    Sampling rate                    : 48.0 KHz
    Title                            : Ripper~SAWANT12

    Code:
    General
    Complete name                    : F:\Spiderman Triology 720p x264 Hindi By-Sawant12[ExDe$]\Spiderman 2 720p x264  Hindi 400Mb By-Sawant12[ExDe$]\Spiderman 2 720p  Hindi 400Mb By-Sawant12[ExDe$].mkv
    Format                           : Matroska
    File size                        : 395 MiB
    Duration                         : 2h 2mn
    Overall bit rate                 : 451 Kbps
    Encoded date                     : UTC 2011-04-23 08:24:12
    Writing application              : mkvmerge v4.6.0 ('Still Crazy After All These Years') built on Mar 10 2011 02:50:32
    Writing library                  : libebml v1.2.0 + libmatroska v1.1.0
    
    Video
    ID                               : 1
    Format                           : AVC
    Format/Info                      : Advanced Video Codec
    Format profile                   : [email protected]
    Format settings, CABAC           : Yes
    Format settings, ReFrames        : 4 frames
    Muxing mode                      : Container [email protected]
    Codec ID                         : V_MPEG4/ISO/AVC
    Duration                         : 2h 2mn
    Width                            : 1 280 pixels
    Height                           : 528 pixels
    Display aspect ratio             : 2.40:1
    Frame rate mode                  : Constant
    Frame rate                       : 25.000 fps
    Color space                      : YUV
    Chroma subsampling               : 4:2:0
    Bit depth                        : 8 bits
    Scan type                        : Progressive
    Title                            : Ripper~SAWANT12
    Writing library                  : x264 core 115 r1937 aa21558
    Encoding settings                : cabac=1 / ref=3 / deblock=1:0:0 / analyse=0x3:0x113 / me=hex / subme=7 / psy=1 / psy_rd=1.00:0.00 / mixed_ref=1 / me_range=16 / chroma_me=1 / trellis=1 / 8x8dct=1 / cqm=0 / deadzone=21,11 / fast_pskip=1 / chroma_qp_offset=-2 / threads=3 / sliced_threads=0 / nr=0 / decimate=1 / interlaced=0 / bluray_compat=0 / constrained_intra=0 / bframes=3 / b_pyramid=2 / b_adapt=1 / b_bias=0 / direct=1 / weightb=1 / open_gop=0 / weightp=2 / keyint=250 / keyint_min=25 / scenecut=40 / intra_refresh=0 / rc_lookahead=40 / rc=crf / mbtree=1 / crf=35.0 / qcomp=0.60 / qpmin=0 / qpmax=69 / qpstep=4 / ip_ratio=1.40 / aq=1:1.00
    
    Audio
    ID                               : 2
    Format                           : AAC
    Format/Info                      : Advanced Audio Codec
    Format version                   : Version 4
    Format profile                   : LC
    Format settings, SBR             : No
    Codec ID                         : A_AAC
    Duration                         : 2h 2mn
    Channel(s)                       : 2 channels
    Channel positions                : Front: L R
    Sampling rate                    : 48.0 KHz
    Title                            : Ripper~SAWANT12
    Language                         : Hindi
    Code:
    General
    Complete name                    : F:\Spiderman Triology 720p x264 Hindi By-Sawant12[ExDe$]\Spiderman 3 720p x264  Hindi 400Mb By-Sawant12[ExDe$]\Spiderman 3 720p  Hindi 400Mb By-Sawant12[ExDe$].mkv
    Format                           : Matroska
    File size                        : 419 MiB
    Duration                         : 2h 13mn
    Overall bit rate                 : 439 Kbps
    Movie name                       : Spiderman 3 720p  Hindi 400Mb By-Sawant12[ExDe$].mkv
    Encoded date                     : UTC 2011-04-23 12:26:55
    Writing application              : mkvmerge v4.6.0 ('Still Crazy After All These Years') built on Mar 10 2011 02:50:32
    Writing library                  : libebml v1.2.0 + libmatroska v1.1.0
    
    Video
    ID                               : 1
    Format                           : AVC
    Format/Info                      : Advanced Video Codec
    Format profile                   : [email protected]
    Format settings, CABAC           : Yes
    Format settings, ReFrames        : 4 frames
    Muxing mode                      : Container [email protected]
    Codec ID                         : V_MPEG4/ISO/AVC
    Duration                         : 2h 13mn
    Width                            : 1 280 pixels
    Height                           : 528 pixels
    Display aspect ratio             : 2.40:1
    Frame rate mode                  : Constant
    Frame rate                       : 25.000 fps
    Color space                      : YUV
    Chroma subsampling               : 4:2:0
    Bit depth                        : 8 bits
    Scan type                        : Progressive
    Title                            : Ripper~SAWANT12
    Writing library                  : x264 core 115 r1937 aa21558
    Encoding settings                : cabac=1 / ref=3 / deblock=1:0:0 / analyse=0x3:0x113 / me=hex / subme=7 / psy=1 / psy_rd=1.00:0.00 / mixed_ref=1 / me_range=16 / chroma_me=1 / trellis=1 / 8x8dct=1 / cqm=0 / deadzone=21,11 / fast_pskip=1 / chroma_qp_offset=-2 / threads=3 / sliced_threads=0 / nr=0 / decimate=1 / interlaced=0 / bluray_compat=0 / constrained_intra=0 / bframes=3 / b_pyramid=2 / b_adapt=1 / b_bias=0 / direct=1 / weightb=1 / open_gop=0 / weightp=2 / keyint=250 / keyint_min=25 / scenecut=40 / intra_refresh=0 / rc_lookahead=40 / rc=crf / mbtree=1 / crf=35.0 / qcomp=0.60 / qpmin=0 / qpmax=69 / qpstep=4 / ip_ratio=1.40 / aq=1:1.00
    
    Audio
    ID                               : 2
    Format                           : AAC
    Format/Info                      : Advanced Audio Codec
    Format version                   : Version 4
    Format profile                   : LC
    Format settings, SBR             : No
    Codec ID                         : A_AAC
    Duration                         : 2h 13mn
    Channel(s)                       : 2 channels
    Channel positions                : Front: L R
    Sampling rate                    : 48.0 KHz
    Title                            : Ripper~SAWANT12
    Language                         : Hindi


    Code:
    http://www.fileserve.com/file/SCxjj93
    http://www.fileserve.com/file/UrPZ5aD
    http://www.fileserve.com/file/vMT26Xf

  3. #3
    Banned www.desirulez.net
    Join Date
    Jun 2011
    Posts
    229

    T

    Default

    The Transporter Trilogy BRRip (Hindi) 720p X264 imamzafar[TDBB]




    Transporter 1




    General
    Complete name : Transporter 1 BRRip (Hindi) 720p X264 imamzafar[TDBB]
    Format : Matroska
    File size : 1.46 GiB
    Duration : 1h 32mn
    Overall bit rate : 2 274 Kbps


    Video
    ID : 1
    Format : AVC
    Format/Info : Advanced Video Codec
    Format profile : [email protected]
    Format settings, CABAC : Yes
    Format settings, ReFrames : 3 frames
    Muxing mode : Container [email protected]
    Codec ID : V_MPEG4/ISO/AVC
    Duration : 1h 32mn
    Bit rate mode : Variable
    Nominal bit rate : 2 145 Kbps
    Maximum bit rate : 25.0 Mbps
    Width : 1 280 pixels
    Height : 544 pixels
    Display aspect ratio : 2.35:1
    Frame rate : 23.976 fps
    Color space : YUV
    Chroma subsampling : 4:2:0
    Bit depth : 8 bits
    Scan type : Progressive


    Audio
    ID : 2
    Format : AAC
    Format/Info : Advanced Audio Codec
    Format version : Version 4
    Format profile : LC
    Format settings, SBR : No
    Codec ID : A_AAC
    Duration : 1h 32mn
    Channel(s) : 2 channels
    Channel positions : Front: L R
    Sampling rate : 48.0 KHz










    Code:
    http://www.fileserve.com/file/PuNQAn6

    Code:
    http://www.fileserve.com/file/rwcpMNp
    http://www.fileserve.com/file/rgrgyFT
    http://www.fileserve.com/file/yT8tnHV
    http://www.fileserve.com/file/8WyjFQA
    Transporter 2




    General
    Complete name : Transporter 2 BRRip (Hindi) 720p X264 imamzafar[TDBB]
    Format : Matroska
    File size : 1.46 GiB
    Duration : 1h 28mn
    Overall bit rate : 2 375 Kbps


    Video
    ID : 1
    Format : AVC
    Format/Info : Advanced Video Codec
    Format profile : [email protected]
    Format settings, CABAC : Yes
    Format settings, ReFrames : 3 frames
    Muxing mode : Container [email protected]
    Codec ID : V_MPEG4/ISO/AVC
    Duration : 1h 28mn
    Bit rate mode : Variable
    Bit rate : 2 247 Kbps
    Maximum bit rate : 25.0 Mbps
    Width : 1 280 pixels
    Height : 544 pixels
    Display aspect ratio : 2.35:1
    Frame rate : 23.976 fps
    Color space : YUV
    Chroma subsampling : 4:2:0
    Bit depth : 8 bits
    Scan type : Progressive


    Audio
    ID : 2
    Format : MPEG Audio
    Format version : Version 1
    Format profile : Layer 3
    Codec ID : A_MPEG/L3
    Codec ID/Hint : MP3
    Duration : 1h 28mn
    Bit rate mode : Constant
    Bit rate : 128 Kbps
    Channel(s) : 2 channels
    Sampling rate : 48.0 KHz
    Stream size : 80.8 MiB (5%)








    Code:
    http://www.fileserve.com/file/uXj8WMt

    Code:
    http://www.fileserve.com/file/GtnSuve
    http://www.fileserve.com/file/rAwsUJz
    http://www.fileserve.com/file/aGbVWtK
    http://www.fileserve.com/file/C5weN4p
    Transporter 3





    General
    Complete name : Transporter 3 BRRip (Hindi) 720p X264 imamzafar[TDBB]
    Format : Matroska
    File size : 1.46 GiB
    Duration : 1h 43mn
    Overall bit rate : 2 015 Kbps


    Video
    ID : 1
    Format : AVC
    Format/Info : Advanced Video Codec
    Format profile : [email protected]
    Format settings, CABAC : Yes
    Format settings, ReFrames : 3 frames
    Muxing mode : Container [email protected]
    Codec ID : V_MPEG4/ISO/AVC
    Duration : 1h 43mn
    Bit rate mode : Variable
    Nominal bit rate : 1 886 Kbps
    Maximum bit rate : 25.0 Mbps
    Width : 1 280 pixels
    Height : 544 pixels
    Display aspect ratio : 2.35:1
    Frame rate : 23.976 fps
    Color space : YUV
    Chroma subsampling : 4:2:0
    Bit depth : 8 bits


    Audio
    ID : 2
    Format : AAC
    Format/Info : Advanced Audio Codec
    Format version : Version 4
    Format profile : LC
    Format settings, SBR : No
    Codec ID : A_AAC
    Duration : 1h 43mn
    Channel(s) : 2 channels
    Channel positions : Front: L R
    Sampling rate : 48.0 KHz










    Code:
    http://www.fileserve.com/file/hKbf9hj

    Code:
    http://www.fileserve.com/file/cNkFTrZ
    http://www.fileserve.com/file/FwbVeNJ
    http://www.fileserve.com/file/pRhfuWD
    http://www.fileserve.com/file/EpFYevW

  4. #4
    Banned www.desirulez.net
    Join Date
    Jun 2011
    Posts
    229

    T

    Default

    Pirates Of The Caribbean (2003-2007).TRIOLOGY.720P.BRRip.6CHL.Dual.Audio [Eng-Hindi][Team ExD]






    ~*Info*~
    Plot
    Pirates Of The Caribbean: The Curse Of The Black Pearl
    (2003): Jack Sparrow (Johnny Depp) and Will Turner
    (Orlando Bloom) brave the Caribbean Sea to stop a
    ship of pirates led by Captain Barbossa (Geoffrey Rush),
    who intend to break an ancient curse using the blood
    of the lovely Elizabeth Swann (Keira Knightley)...

    Pirates Of The Caribbean 2: Dead Man's Chest (2006):
    Captain Jack Sparrow (Johnny Depp) is mortified to
    discover he owes a blood debt to the legendary
    Davey Jones (Bill Nighy), captain of the ghostly
    Flying Dutchman. With time running out,
    Jack must find a way out of his debt or else
    be doomed to eternal damnation.

    And as if this weren't enough, his problems prompt the
    cancellation of the wedding plans of a certain Will Turner
    (Orlando Bloom) and Elizabeth Swann (Keira Knightley),
    who are forced to join Jack on another maritime
    misadventure!

    Pirates Of The Caribbean 3: At World's End (2007):
    In the third installation of the ever-popular Pirates... series,
    Pirates Of The Caribbean: At World's End, we find our
    heroes Will Turner and Elizabeth Swann allied with
    Captain Barbossa in a desperate quest to free Captain
    Jack Sparrow from his mind-bending trap in Davy Jones'
    locker. Navigating through treachery, betrayal and wild
    waters, they must forge their way to exotic Singapore
    and confront the cunning Chinese pirate Sao Fen
    (Chow Yun-Fat).

    IMDB Links
    Pirates of the Caribbean: Svarta Pärlans förbannelse (2003) - IMDb
    Pirates of the Caribbean: Vid världens ände (2007) - IMDb
    Pirates of the Caribbean: Död mans kista (2006) - IMDb


    Rip Info
    Format : Matroska

    Video
    ID : 1
    Format : AVC
    Format/Info : Advanced Video Codec
    Format profile : Main****************L3.1
    Format settings, CABAC : Yes
    Format settings, ReFrames : 4 frames
    Codec ID : V_MPEG4/ISO/AVC
    Nominal bit rate : 810 Kbps
    Width : 1 280 pixels
    Height : 528 pixels
    Display aspect ratio : 2.35:1
    Frame rate mode : Variable
    Frame rate : 24.000 fps
    Color space : YUV
    Chroma subsampling : 4:2:0
    Bit depth : 8 bits
    Scan type : Progressive
    Bits/(Pixel*Frame) : 0.050
    Writing library : x264 core 112
    Language : English

    Audio #1
    ID : 2
    Format : AAC
    Format/Info : Advanced Audio Codec
    Format profile : LC
    Codec ID : A_AAC
    Channel(s) : 6 channels
    Channel positions : Front: L C R, Side: L R, LFE
    Compression mode : Lossy
    Language : Hindi

    Audio #2
    ID : 3
    Format : AAC
    Format/Info : Advanced Audio Codec
    Format profile : LC
    Codec ID : A_AAC
    Channel(s) : 6 channels
    Channel positions : Front: L C R, Side: L R, LFE
    Compression mode : Lossy
    Language : English

    ~*Screens*~














    ~*Downloads*~

    Part 1
    Fileserve
    Filesonic
    Duckload

    Part 2
    Fileserve
    Filesonic
    Duckload

    Part 3
    Fileserve
    Filesonic
    Duckload

    ********* **********
    Releaser : -={MINDFREAK}=-
    Uploader : -={MINDFREAK}=-
    ********* **********

  5. #5
    Banned www.desirulez.net
    Join Date
    Jun 2011
    Posts
    229

    T

    Default

    Pirates Of The Caribbean (2003-2007).TRIOLOGY.720P.BRRip.6CHL.Dual.Audio [Eng-Hindi][Team ExD]






    ~*Info*~
    Plot
    Pirates Of The Caribbean: The Curse Of The Black Pearl
    (2003): Jack Sparrow (Johnny Depp) and Will Turner
    (Orlando Bloom) brave the Caribbean Sea to stop a
    ship of pirates led by Captain Barbossa (Geoffrey Rush),
    who intend to break an ancient curse using the blood
    of the lovely Elizabeth Swann (Keira Knightley)...

    Pirates Of The Caribbean 2: Dead Man's Chest (2006):
    Captain Jack Sparrow (Johnny Depp) is mortified to
    discover he owes a blood debt to the legendary
    Davey Jones (Bill Nighy), captain of the ghostly
    Flying Dutchman. With time running out,
    Jack must find a way out of his debt or else
    be doomed to eternal damnation.

    And as if this weren't enough, his problems prompt the
    cancellation of the wedding plans of a certain Will Turner
    (Orlando Bloom) and Elizabeth Swann (Keira Knightley),
    who are forced to join Jack on another maritime
    misadventure!

    Pirates Of The Caribbean 3: At World's End (2007):
    In the third installation of the ever-popular Pirates... series,
    Pirates Of The Caribbean: At World's End, we find our
    heroes Will Turner and Elizabeth Swann allied with
    Captain Barbossa in a desperate quest to free Captain
    Jack Sparrow from his mind-bending trap in Davy Jones'
    locker. Navigating through treachery, betrayal and wild
    waters, they must forge their way to exotic Singapore
    and confront the cunning Chinese pirate Sao Fen
    (Chow Yun-Fat).

    IMDB Links
    Pirates of the Caribbean: Svarta Pärlans förbannelse (2003) - IMDb
    Pirates of the Caribbean: Vid världens ände (2007) - IMDb
    Pirates of the Caribbean: Död mans kista (2006) - IMDb


    Rip Info
    Format : Matroska

    Video
    ID : 1
    Format : AVC
    Format/Info : Advanced Video Codec
    Format profile : Main****************L3.1
    Format settings, CABAC : Yes
    Format settings, ReFrames : 4 frames
    Codec ID : V_MPEG4/ISO/AVC
    Nominal bit rate : 810 Kbps
    Width : 1 280 pixels
    Height : 528 pixels
    Display aspect ratio : 2.35:1
    Frame rate mode : Variable
    Frame rate : 24.000 fps
    Color space : YUV
    Chroma subsampling : 4:2:0
    Bit depth : 8 bits
    Scan type : Progressive
    Bits/(Pixel*Frame) : 0.050
    Writing library : x264 core 112
    Language : English

    Audio #1
    ID : 2
    Format : AAC
    Format/Info : Advanced Audio Codec
    Format profile : LC
    Codec ID : A_AAC
    Channel(s) : 6 channels
    Channel positions : Front: L C R, Side: L R, LFE
    Compression mode : Lossy
    Language : Hindi

    Audio #2
    ID : 3
    Format : AAC
    Format/Info : Advanced Audio Codec
    Format profile : LC
    Codec ID : A_AAC
    Channel(s) : 6 channels
    Channel positions : Front: L C R, Side: L R, LFE
    Compression mode : Lossy
    Language : English

    ~*Screens*~














    ~*Downloads*~

    Part 1
    Fileserve
    Filesonic
    Duckload

    Part 2
    Fileserve
    Filesonic
    Duckload

    Part 3
    Fileserve
    Filesonic
    Duckload

    ********* **********
    Releaser : -={MINDFREAK}=-
    Uploader : -={MINDFREAK}=-
    ********* **********

  6. #6
    Banned www.desirulez.net
    Join Date
    Jun 2011
    Posts
    229

    T

    Default



    Harry Potter Collection Box.Set (1-7) (2001-2010) BRRIP - 720P - 6CH - Dual Audio(HiNdi-ENGLish)




    INFO::

    Movie Information:

    Code:
    Harry Potter And The Sorcers Stone - 2001
    http://www.imdb.com/title/tt0241527/
    
    Harry Potter And The Chamber of Secrets - 2002
    http://www.imdb.com/title/tt0295297/
    
    Harry Potter And The Prisoner of Azkaban - 2004
    http://www.imdb.com/title/tt0304141/
    
    Harry Potter And The Goblet of Fire - 2005
    http://www.imdb.com/title/tt0330373/
    
    Harry Potter And The Order of the Pheonix - 2007
    http://www.imdb.com/title/tt0373889/
    
    Harry Potter And The The Half-Blood Prince - 2009
    http://www.imdb.com/title/tt0417741/
    
    Harry Potter and the Deathly Hallows: Part 1 (2010)
    http://www.imdb.com/title/tt0926084/
    Video Specifications For all 1 to 6 Part:

    Format : Matroska

    Video
    ID : 1
    Format : AVC
    Format/Info : Advanced Video Codec
    Format settings, CABAC : Yes
    Format settings, ReFrames : 4 frames
    Codec ID : V_MPEG4/ISO/AVC
    Width : 1 200 pixels
    Height : 480 pixels
    Display aspect ratio : 2.40:1
    Frame rate mode : Variable
    Frame rate : 23.976 fps
    Color space : YUV

    Audio #1
    ID : 2
    Format : AAC
    Format/Info : Advanced Audio Codec
    Format profile : LC
    Codec ID : A_AAC
    Channel(s) : 6 channels
    Language : Hindi

    Audio #2
    ID : 3
    Format : AAC
    Format/Info : Advanced Audio Codec
    Format profile : LC
    Codec ID : A_AAC
    Channel(s) : 6 channels
    Language : English


    Video Specifications For 7th Part:

    Format : Matroska
    File size : 464 MiB
    Duration : 2h 9mn [end credit cut]
    Overall bit rate : 501 Kbps


    Video
    ID : 1
    Format : AVC
    Format/Info : Advanced Video Codec
    Format settings, CABAC : Yes
    Format settings, ReFrames : 15 frames
    Codec ID : V_MPEG4/ISO/AVC
    Duration : 2h 9mn
    Nominal bit rate : 360 Kbps
    Width : 720 pixels
    Height : 304 pixels

    Audio #1
    ID : 2
    Format : MPEG Audio
    Format version : Version 1
    Format profile : Layer 3
    Codec ID : A_MPEG/L3
    Codec ID/Hint : MP3
    Duration : 2h 9mn
    Bit rate mode : Constant
    Bit rate : 96.0 Kbps
    Channel(s) : 2 channels
    Language : Hindi

    Audio #2
    ID : 3
    Format : AAC
    Format/Info : Advanced Audio Codec
    Format version : Version 4
    Format profile : LC
    Format settings, SBR : Yes
    Format settings, PS : Yes
    Codec ID : A_AAC
    Duration : 2h 9mn
    Language : ENGLISH


    SCREENSHOTS For ALl 1 to 6 Part::















    SCREENSHOTS For 7th Part::






    Code:
    http://www.fileserve.com/file/G8ShJP5
    Part 1
    Code:
    http://www.fileserve.com/file/kmMURXQ
    Part 2
    Code:
    http://www.fileserve.com/file/bj7FU6s
    Part 3
    Code:
    http://www.fileserve.com/file/nZJd6HA
    Part 4
    Code:
    http://www.fileserve.com/file/7ZhQ7JY
    Part 5
    Code:
    http://www.fileserve.com/file/TRQVDzR
    Part 6
    Code:
    http://www.fileserve.com/file/sQ53pcV
    Part 7
    Code:
    http://www.fileserve.com/file/sT9SY2T


    Code:
    http://www.filesonic.com/file/1173052034/Harry Potter 1.mkv
    http://www.filesonic.com/file/1173078324/Harry Potter 2.mkv
    http://www.filesonic.com/file/1173060234/Harry Potter 3.mkv
    http://www.filesonic.com/file/1173081504/Harry Potter 4.mkv
    http://www.filesonic.com/file/1173094674/Harry Potter 5.mkv
    http://www.filesonic.com/file/1173126874/Harry Potter 6.mkv
    http://www.filesonic.com/file/1173097594/Harry Potter 7.mkv






  7. #7
    Banned www.desirulez.net
    Join Date
    Jun 2011
    Posts
    229

    T

    Default



    Alien Vs Predator Duology Bluray 720p Dual Audio - Henry




    Format : Matroska
    File size : 649 MiB
    Duration : 1h 48mn
    Codec ID : V_MPEG4/ISO/AVC
    Nominal bit rate : 644 Kbps
    Width : 1 280 pixels
    Height : 544 pixels
    Display aspect ratio : 2.35:1
    Frame rate : 23.976 fps
    Color space : YUV
    Chroma subsampling : 4:2:0
    Bit depth : 8 bits
    English Audio : AAC 48 kbps
    Hindi Audio : AC-3 128 kbps
    Channel(s) : 2 channels
    Sampling rate : 48.0 KHz









    ~*Downloads*~

    Fileserve
    Code:
    http://www.fileserve.com/file/9JDRPEm
    Wupload
    Code:
    http://www.wupload.com/file/17076170/Alien Vs Predator.mkv



    File size : 788 MiB
    Duration : 1h 41mn
    Overall bit rate : 1 088 Kbps
    Codec ID : V_MPEG4/ISO/AVC
    Nominal bit rate : 900 Kbps
    Width : 1 280 pixels
    Height : 528 pixels
    Display aspect ratio : 2.35:1
    Frame rate : 23.976 fps
    Color space : YUV
    Chroma subsampling : 4:2:0
    Bit depth : 8 bits
    English Audio : AAC 48 kbps
    Hindi Audio : AC-3 128 kbps
    Channel(s) : 2 channels
    Sampling rate : 48.0 KHz









    ~*Downloads*~

    Fileserve
    Code:
    http://www.fileserve.com/file/HZzpmaZ
    Wupload
    Code:
    http://www.wupload.com/file/17076557/Alien Vs Predator 2.mkv


  8. #8
    Banned www.desirulez.net
    Join Date
    Jun 2011
    Posts
    229

    T

    Default


    GET...

    SET...

    GO....

    FAST & FuRIOUS Quadralogy
    720p BRRIP
    Dual Audio
    Hindi,English
    2.46 Gb



    Certification:
    Rated U/A and suitable for all types of Audiences



    Storyline:THE FAST & THE FURIOUS 2001

    An undercover cop infiltrates an underworld subculture of Los Angeles street racers looking to bust a hijacking ring, and soon begins to question his loyalties when his new street racing friends become the prime suspects.

    ~*Downloads*~


    Fileserve
    Code:
    http://www.fileserve.com/file/RVZuufa
    Filesonic
    Code:
    http://www.filesonic.com/file/1200013451/Fast & Furious 720p Dual Audio SDR_Release -=![SSHINU]!=-.mkv
    Storyline:2 FAST 2 FURIOUS 2003

    Former cop, Brian O'Conner is finally arrested after letting his leader escape the law. To avoid the consequences, he must now work with an old college friend and help the police arrest a local drug exporter.

    ~*Downloads*~



    Fileserve
    Code:
    http://www.fileserve.com/file/vZHCSdX
    Filesonic
    Code:
    http://www.filesonic.com/file/1199608291/2 Fast 2 Furious 720p Dual Audio SDR_Release -=![SSHINU]!=--001.mkv
    Storyline:FAST & FURIOUS:TOKYO DRIFT 2006

    In order to avoid a jail sentence, Sean Boswell heads to Tokyo to live with his military father. In a low-rent section of the city, Sean gets caught up in the underground world of drift racing.


    ~*Downloads*~


    Fileserve
    Code:
    http://www.fileserve.com/file/wZX48dG
    Filesonic
    Code:
    http://www.filesonic.com/file/1199661004/Fast and Furious 3 Tokyo Drift 720p Dual Audio SDR_Release -=![SSHINU]!=-.mkv
    Storyline:FAST & FURIOUS 2009

    Brian O'Conner, now working for the FBI in LA, teams up with Dominic Toretto to bring down a heroin importer by infiltrating his operation.

    ~*Downloads*~


    Fileserve
    Code:
    http://www.fileserve.com/file/3hUhwbk
    Filesonic
    Code:
    http://www.filesonic.com/file/1199684054/Fast and Furious 4 720p Dual Audio SDR_Release -=[SSHINU]=-.mkv














  9. #9
    Banned www.desirulez.net
    Join Date
    Jun 2011
    Posts
    229

    T

    Default



    Final Destination.Quadrilogy (2000-2009).480P.BRRIP.Extended Version.Dual Audio(Hindi-English)




    INFO::

    Movie Information:
    Code:
    Final Destination (2000)
    IMDB LINK:http://www.imdb.com/title/tt0195714/
    
    Final Destination 2 (2003)
    IMDB LINK:http://www.imdb.com/title/tt0309593/
    
    Final Destination 3 (2006)
    IMDB LINK:http://www.imdb.com/title/tt0414982/
    
    The Final Destination 4 (2009)
    IMDB LINK:http://www.imdb.com/title/tt1144884/
    Video Specifications:
    Code:
    Format                           : Matroska
    
    Video
    ID                               : 1
    Format                           : AVC
    Format/Info                      : Advanced Video Codec
    Format settings, CABAC           : Yes
    Format settings, ReFrames        : 4 frames
    Format settings, GOP             : M=3, N=56
    Codec ID                         : V_MPEG4/ISO/AVC
    Width                            : 720 pixels
    Height                           : 304 pixels
    Display aspect ratio             : 2.35:1
    FrWriting library                : x264 core 112
    Language                         : English
    
    Audio #1
    ID                               : 2
    Format                           : MPEG Audio
    Codec ID                         : A_MPEG/L3
    Codec ID/Hint                    : MP3
    Bit rate mode                    : Variable
    Channel(s)                       : 2 channels
    Compression mode                 : Lossy
    Language                         : English
    
    Audio #2
    ID                               : 3
    Format                           : MPEG Audio
    Codec ID                         : A_MPEG/L3
    Codec ID/Hint                    : MP3
    Bit rate mode                    : Variable
    Channel(s)                       : 2 channels
    Compression mode                 : Lossy
    Writing library                  : LAME3.98
    Language                         : Hindi













    ~*Downloads*~



    Final Destination (2000)

    Fileserve
    Code:
    http://www.fileserve.com/file/WDv5bF2
    Filesonic
    Code:
    http://www.filesonic.com/file/1200126744/Final Destination 1.mkv
    Final Destination 2 (2003)
    Fileserve
    Code:
    http://www.fileserve.com/file/bjgTyXy
    Filesonic
    Code:
    http://www.filesonic.com/file/1200150834/Final Destination 2.mkv
    Final Destination 3 (2006)
    Fileserve
    Code:
    http://www.fileserve.com/file/ywtJVaS
    Filesonic
    Code:
    http://www.filesonic.com/file/1200150674/Final Destination 3.mkv
    The Final Destination 4 (2009)
    Fileserve
    Code:
    http://www.fileserve.com/file/WruXjMX
    Filesonic
    Code:
    http://www.filesonic.com/file/1200182784/Final Destination 4.mkv


  10. #10
    Banned www.desirulez.net
    Join Date
    Jun 2011
    Posts
    229

    T

    Default



    Toy Story Trilogy Bluray 480p Dual Audio [Eng-Hindi] - Henry




    Format : Matroska
    File size : 400 MiB
    Duration : 1h 17mn
    Codec ID : V_MPEG4/ISO/AVC
    Duration : 1h 17mn
    Nominal bit rate : 593 Kbps
    Width : 848 pixels
    Height : 368 pixels
    Display aspect ratio : 2.35:1
    Frame rate : 25.000 fps
    Chroma subsampling : 4:2:0
    Bit depth : 8 bits
    English Audio : AAC 48 kbps
    Hindi Audio : AAC 48 kbps
    English(s)/Sampling Rate : 96.0 KHz
    Hindi(s)/Sampling Rate : 96.0 KHz







    ~*Downloads*~

    Fileserve
    Code:
    http://www.fileserve.com/file/gwEHsAB
    Filesonic
    Code:
    http://www.filesonic.com/file/1203847104/Toy Story 1.mkv


    Format : Matroska
    Format : Matroska
    File size : 383 MiB
    Duration : 1h 32mn
    Codec ID : V_MPEG4/ISO/AVC
    Nominal bit rate : 454 Kbps
    Width : 848 pixels
    Height : 352 pixels
    Display aspect ratio : 2.40:1
    Frame rate : 23.976 fps
    Chroma subsampling : 4:2:0
    Bit depth : 8 bits
    English Audio : AAC 48 kbps
    Hindi Audio : AAC 48 kbps
    English(s)/Sampling Rate : 96.0 KHz
    Hindi(s)/Sampling Rate : 96.0 KHz






    ~*Downloads*~

    Fileserve
    Code:
    http://www.fileserve.com/file/aKveX7B
    Filesonic
    Code:
    http://www.filesonic.com/file/1203886444/Toy Story 2.mkv




    Format : Matroska
    File size : 393 MiB
    Duration : 1h 42mn
    Overall bit rate : 536 Kbps
    Codec ID : V_MPEG4/ISO/AVC
    Nominal bit rate : 410 Kbps
    Width : 848 pixels
    Height : 352 pixels
    Display aspect ratio : 2.40:1
    Frame rate : 23.976 fps
    Chroma subsampling : 4:2:0
    Bit depth : 8 bits
    English Audio : AAC 48 kbps
    Hindi Audio : AAC 48 kbps
    English(s)/Sampling Rate : 96.0 KHz
    Hindi(s)/Sampling Rate : 96.0 KHz






    ~*Downloads*~

    Fileserve
    Code:
    http://www.fileserve.com/file/KAeNtFs
    Filesonic
    Code:
    http://www.filesonic.com/file/1203805664/Toy Story 3.mkv





  11. #11
    Banned www.desirulez.net
    Join Date
    Jun 2011
    Posts
    229

    T

    Default

    Universal Soldier Trilogy [Dual Audio] Brrip 720p-Deadman


    Universal Soldier (1992) BluRay Rip 720p [Dual Audio]



    Code:
    Format                           : Matroska
    File size                        : 544 MiB
    Duration                         : 1h 43mn
    Overall bit rate                 : 733 Kbps
    Movie name                       : Rip By DeadMan-www.ExDesi.Com
    Encoded date                     : UTC 2011-06-04 14:38:03
    Writing application              : mkvmerge v4.4.0 ('Die Wiederkehr') built on Oct 31 2010 21:52:48
    Writing library                  : libebml v1.0.0 + libmatroska v1.0.0
    
    Video
    ID                               : 1
    Format                           : AVC
    Format/Info                      : Advanced Video Codec
    Format profile                   : High****************L4.1
    Format settings, CABAC           : Yes
    Format settings, ReFrames        : 3 frames
    Muxing mode                      : Header stripping
    Codec ID                         : V_MPEG4/ISO/AVC
    Duration                         : 1h 43mn
    Nominal bit rate                 : 569 Kbps
    Width                            : 1 280 pixels
    Height                           : 544 pixels
    Display aspect ratio             : 2.35:1
    Frame rate                       : 23.976 fps
    Color space                      : YUV
    Chroma subsampling               : 4:2:0
    Bit depth                        : 8 bits
    Scan type                        : Progressive
    Bits/(Pixel*Frame)               : 0.034
    Writing library                  : x264 core 68 r1183M f21daff
    Encoding settings                : cabac=1 / ref=3 / deblock=1:0:0 / analyse=0x3:0x113 / me=hex / subme=7 / psy_rd=1.0:0.0 / mixed_ref=1 / me_range=16 / chroma_me=1 / trellis=1 / 8x8dct=1 / cqm=0 / deadzone=21,11 / chroma_qp_offset=-2 / threads=6 / nr=0 / decimate=1 / mbaff=0 / bframes=3 / b_pyramid=0 / b_adapt=1 / b_bias=0 / direct=1 / wpredb=1 / keyint=250 / keyint_min=25 / scenecut=40 / rc=2pass / bitrate=569 / ratetol=1.0 / qcomp=0.60 / qpmin=10 / qpmax=51 / qpstep=4 / cplxblur=20.0 / qblur=0.5 / ip_ratio=1.40 / pb_ratio=1.30 / aq=1:1.00
    
    Audio #1
    ID                               : 2
    Format                           : MPEG Audio
    Format version                   : Version 1
    Format profile                   : Layer 3
    Mode                             : Joint stereo
    Mode extension                   : MS Stereo
    Muxing mode                      : Header stripping
    Codec ID                         : A_MPEG/L3
    Codec ID/Hint                    : MP3
    Duration                         : 1h 43mn
    Bit rate mode                    : Constant
    Bit rate                         : 128 Kbps
    Channel(s)                       : 2 channels
    Sampling rate                    : 48.0 KHz
    Compression mode                 : Lossy
    Delay relative to video          : 23s 500ms
    Stream size                      : 94.6 MiB (17%)
    Title                            : Deadman
    Writing library                  : LAME3.98r
    Encoding settings                : -m j -V 4 -q 2 -lowpass 17 -b 128
    Language                         : Hindi
    
    Audio #2
    ID                               : 3
    Format                           : AAC
    Format/Info                      : Advanced Audio Codec
    Format profile                   : HE-AAC / LC
    Codec ID                         : A_AAC
    Duration                         : 1h 43mn
    Channel(s)                       : 2 channels
    Channel positions                : Front: L R
    Sampling rate                    : 48.0 KHz / 24.0 KHz
    Compression mode                 : Lossy
    Title                            : Deadman
    Language                         : English



    ~*Downloads*~

    Fileserve
    Code:
    http://www.fileserve.com/file/JAMM44S
    Filesonic
    Code:
    http://www.filesonic.com/file/1200397954/Universal Soldier 1992 BRRip 720p[Dual Audio] -deadman (1).mkv
    Universal Soldier The Return 1999 BRRip 720p Eng-Hindi



    Code:
    Format                           : Matroska
    File size                        : 423 MiB
    Duration                         : 1h 22mn
    Overall bit rate                 : 713 Kbps
    Movie name                       : Rip By DeadMan-www.ExDesi.Com
    Encoded date                     : UTC 2011-06-04 14:40:10
    Writing application              : mkvmerge v4.4.0 ('Die Wiederkehr') built on Oct 31 2010 21:52:48
    Writing library                  : libebml v1.0.0 + libmatroska v1.0.0
    
    Video
    ID                               : 1
    Format                           : AVC
    Format/Info                      : Advanced Video Codec
    Format profile                   : High****************L3.1
    Format settings, CABAC           : Yes
    Format settings, ReFrames        : 5 frames
    Muxing mode                      : Header stripping
    Codec ID                         : V_MPEG4/ISO/AVC
    Duration                         : 1h 22mn
    Nominal bit rate                 : 549 Kbps
    Width                            : 1 280 pixels
    Height                           : 688 pixels
    Display aspect ratio             : 1.850
    Frame rate                       : 23.976 fps
    Color space                      : YUV
    Chroma subsampling               : 4:2:0
    Bit depth                        : 8 bits
    Scan type                        : Progressive
    Bits/(Pixel*Frame)               : 0.026
    Writing library                  : x264 core 67 r1139M 1024283
    Encoding settings                : cabac=1 / ref=5 / deblock=1:-2:-1 / analyse=0x3:0x113 / me=umh / subme=6 / psy_rd=1.0:0.0 / mixed_ref=1 / me_range=16 / chroma_me=1 / trellis=1 / 8x8dct=1 / cqm=0 / deadzone=21,11 / chroma_qp_offset=-2 / threads=3 / nr=0 / decimate=1 / mbaff=0 / bframes=16 / b_pyramid=1 / b_adapt=1 / b_bias=0 / direct=3 / wpredb=1 / keyint=250 / keyint_min=25 / scenecut=40 / rc=2pass / bitrate=549 / ratetol=1.0 / qcomp=0.60 / qpmin=10 / qpmax=51 / qpstep=4 / cplxblur=20.0 / qblur=0.5 / ip_ratio=1.40 / pb_ratio=1.30 / aq=1:1.00
    
    Audio #1
    ID                               : 2
    Format                           : MPEG Audio
    Format version                   : Version 1
    Format profile                   : Layer 3
    Mode                             : Joint stereo
    Mode extension                   : MS Stereo
    Muxing mode                      : Header stripping
    Codec ID                         : A_MPEG/L3
    Codec ID/Hint                    : MP3
    Duration                         : 1h 22mn
    Bit rate mode                    : Constant
    Bit rate                         : 128 Kbps
    Channel(s)                       : 2 channels
    Sampling rate                    : 48.0 KHz
    Compression mode                 : Lossy
    Delay relative to video          : 23s 500ms
    Stream size                      : 75.6 MiB (18%)
    Title                            : Deadman
    Writing library                  : LAME3.98r
    Encoding settings                : -m j -V 4 -q 2 -lowpass 17 -b 128
    Language                         : Hindi
    
    Audio #2
    ID                               : 3
    Format                           : AAC
    Format/Info                      : Advanced Audio Codec
    Format profile                   : HE-AAC / LC
    Codec ID                         : A_AAC
    Duration                         : 1h 22mn
    Channel(s)                       : 2 channels
    Channel positions                : Front: L R
    Sampling rate                    : 48.0 KHz / 24.0 KHz
    Compression mode                 : Lossy
    Title                            : DeadMan
    Language                         : English




    ~*Downloads*~

    Fileserve
    Code:
    http://www.fileserve.com/file/Tju6wku
    Filesonic
    Code:
    http://www.filesonic.com/file/1200339134/Universal_Soldier_the_return-1999_Brrip720p-Dual_Audio_(1).mkv
    Universal Soldier: Regeneration (2009) 720p - BRRip - Dual-Audio



    Code:
    Format                           : Matroska
    File size                        : 483 MiB
    Duration                         : 1h 36mn
    Overall bit rate                 : 697 Kbps
    Movie name                       : Rip By Deadman-Www.ExDesi.Com
    Encoded date                     : UTC 2011-06-04 15:41:52
    Writing application              : mkvmerge v4.4.0 ('Die Wiederkehr') built on Oct 31 2010 21:52:48
    Writing library                  : libebml v1.0.0 + libmatroska v1.0.0
    
    Video
    ID                               : 1
    Format                           : AVC
    Format/Info                      : Advanced Video Codec
    Format profile                   : High****************L3.1
    Format settings, CABAC           : Yes
    Format settings, ReFrames        : 5 frames
    Muxing mode                      : Header stripping
    Codec ID                         : V_MPEG4/ISO/AVC
    Duration                         : 1h 36mn
    Nominal bit rate                 : 536 Kbps
    Width                            : 1 280 pixels
    Height                           : 544 pixels
    Display aspect ratio             : 2.35:1
    Frame rate                       : 23.976 fps
    Color space                      : YUV
    Chroma subsampling               : 4:2:0
    Bit depth                        : 8 bits
    Scan type                        : Progressive
    Bits/(Pixel*Frame)               : 0.032
    Writing library                  : x264 core 80 r1376M 3feaec2
    Encoding settings                : cabac=1 / ref=5 / deblock=1:-2:-1 / analyse=0x3:0x113 / me=umh / subme=5 / psy=1 / psy_rd=0.0:0.0 / mixed_ref=1 / me_range=16 / chroma_me=1 / trellis=1 / 8x8dct=1 / cqm=0 / deadzone=21,11 / fast_pskip=1 / chroma_qp_offset=0 / threads=3 / sliced_threads=0 / nr=0 / decimate=1 / mbaff=0 / constrained_intra=0 / bframes=16 / b_pyramid=0 / b_adapt=1 / b_bias=0 / direct=3 / wpredb=1 / wpredp=2 / keyint=250 / keyint_min=25 / scenecut=40 / rc_lookahead=40 / rc=2pass / mbtree=1 / bitrate=536 / ratetol=1.0 / qcomp=0.60 / qpmin=10 / qpmax=51 / qpstep=4 / cplxblur=20.0 / qblur=0.5 / ip_ratio=1.40 / aq=2:1.00
    
    Audio #1
    ID                               : 2
    Format                           : MPEG Audio
    Format version                   : Version 2
    Format profile                   : Layer 2
    Muxing mode                      : Header stripping
    Codec ID                         : A_MPEG/L2
    Codec ID/Hint                    : MP2
    Duration                         : 1h 36mn
    Bit rate mode                    : Constant
    Bit rate                         : 128 Kbps
    Channel(s)                       : 2 channels
    Sampling rate                    : 24.0 KHz
    Compression mode                 : Lossy
    Delay relative to video          : 2s 700ms
    Stream size                      : 88.8 MiB (18%)
    Title                            : Deadman
    Language                         : Hindi
    
    Audio #2
    ID                               : 3
    Format                           : AAC
    Format/Info                      : Advanced Audio Codec
    Format profile                   : HE-AAC / LC
    Codec ID                         : A_AAC
    Duration                         : 1h 36mn
    Channel(s)                       : 2 channels
    Channel positions                : Front: L R
    Sampling rate                    : 44.1 KHz / 22.05 KHz
    Compression mode                 : Lossy
    Title                            : Deadman
    Language                         : English




    ~*Downloads*~

    Fileserve
    Code:
    http://www.fileserve.com/file/2cfdz4K
    Filesonic
    Code:
    http://www.filesonic.com/file/1200242994/Universal Soldier Regeneration 2009 720p - BRRip - Dual-Audio (1).mkv

  12. #12
    Banned www.desirulez.net
    Join Date
    Jun 2011
    Posts
    229

    T

    Default

    THE MATRIX TRILOGY 720p BRRIP HINDI DUBBED







    THE MATRIX TRILOGY IMDB INFO

    Code:
    The Matrix 1999
    The Matrix Reloaded 2003
    The Matrix Revolutions (2003)
    RIP INFO:

    THE MATRIX

    Format : Matroska
    File size : 611 MiB
    Duration : 2h 16mn
    Overall bit rate : 628 Kbps
    Movie name : The Matrix 1999 720P BRRip Hindi by FUNDOWNLOADER EXDE$
    Encoded date : UTC 2011-06-10 15:50:15
    Writing application : mkvmerge v4.6.0 ('Still Crazy After All These Years') built on Mar 10 2011 02:50:32
    Writing library : libebml v1.2.0 + libmatroska v1.1.0

    Video
    ID : 1
    Format : AVC
    Format/Info : Advanced Video Codec
    Format profile : Main****************L3.1
    Format settings, CABAC : Yes
    Format settings, ReFrames : 4 frames
    Format settings, GOP : M=3, N=50
    Muxing mode : Header stripping
    Codec ID : V_MPEG4/ISO/AVC
    Duration : 2h 16mn
    Nominal bit rate : 567 Kbps
    Width : 1 280 pixels
    Height : 528 pixels

    Display aspect ratio : 2.40:1
    Frame rate mode : Variable
    Frame rate : 24.000 fps
    Color space : YUV
    Chroma subsampling : 4:2:0
    Bit depth : 8 bits
    Scan type : Progressive
    Bits/(Pixel*Frame) : 0.035
    Title : FUNDOWNLOADER
    Writing library : x264 core 112
    Encoding settings : cabac=1 / ref=2 / deblock=1:0:0 / analyse=0x1:0x111 / me=hex / subme=6 / psy=1 / psy_rd=1.00:0.00 / mixed_ref=0 / me_range=16 / chroma_me=1 / trellis=0 / 8x8dct=0 / cqm=0 / deadzone=21,11 / fast_pskip=1 / chroma_qp_offset=-2 / threads=3 / sliced_threads=0 / nr=0 / decimate=1 / interlaced=0 / constrained_intra=0 / bframes=2 / b_pyramid=2 / b_adapt=1 / b_bias=0 / direct=1 / weightb=0 / open_gop=0 / weightp=2 / keyint=240 / keyint_min=24 / scenecut=40 / intra_refresh=0 / rc_lookahead=40 / rc=abr / mbtree=1 / bitrate=567 / ratetol=1.0 / qcomp=0.60 / qpmin=3 / qpmax=51 / qpstep=4 / ip_ratio=1.40 / aq=1:1.00
    Language : English
    Color primaries : BT.709-5, BT.1361, IEC 61966-2-4, SMPTE RP177
    Transfer characteristics : BT.709-5, BT.1361
    Matrix coefficients : BT.709-5, BT.1361, IEC 61966-2-4 709, SMPTE RP177

    Audio
    ID : 2
    Format : AAC
    Format/Info : Advanced Audio Codec
    Format profile : LC
    Codec ID : A_AAC
    Duration : 2h 16mn
    Channel(s) : 2 channels
    Channel positions : Front: L R
    Sampling rate : 44.1 KHz
    Compression mode : Lossy
    Title : FUNDOWNLOADER
    Language : Hindi
    Text
    ID : 3
    Format : UTF-8
    Codec ID : S_TEXT/UTF8
    Codec ID/Info : UTF-8 Plain Text


    THE MATRIX RELOADED


    Format : Matroska
    File size : 701 MiB
    Duration : 2h 12mn
    Overall bit rate : 739 Kbps
    Movie name : The Matrix Reloaded 2003 720P Brip HINI DUBBED by FUNDOWNLOADER EXDE$
    Encoded date : UTC 2011-06-10 15:36:08
    Writing application : mkvmerge v4.6.0 ('Still Crazy After All These Years') built on Mar 10 2011 02:50:32
    Writing library : libebml v1.2.0 + libmatroska v1.1.0

    Video
    ID : 1
    Format : AVC
    Format/Info : Advanced Video Codec
    Format profile : Main****************L3.1
    Format settings, CABAC : Yes
    Format settings, ReFrames : 4 frames
    Format settings, GOP : M=3, N=52
    Muxing mode : Header stripping
    Codec ID : V_MPEG4/ISO/AVC
    Duration : 2h 12mn
    Nominal bit rate : 670 Kbps
    Width : 1 280 pixels
    Height : 528 pixels

    Display aspect ratio : 2.40:1
    Frame rate mode : Variable
    Frame rate : 25.000 fps
    Color space : YUV
    Chroma subsampling : 4:2:0
    Bit depth : 8 bits
    Scan type : Progressive
    Bits/(Pixel*Frame) : 0.040
    Title : FUNDOWNLOADER
    Writing library : x264 core 112
    Encoding settings : cabac=1 / ref=2 / deblock=1:0:0 / analyse=0x1:0x111 / me=hex / subme=6 / psy=1 / psy_rd=1.00:0.00 / mixed_ref=0 / me_range=16 / chroma_me=1 / trellis=0 / 8x8dct=0 / cqm=0 / deadzone=21,11 / fast_pskip=1 / chroma_qp_offset=-2 / threads=3 / sliced_threads=0 / nr=0 / decimate=1 / interlaced=0 / constrained_intra=0 / bframes=2 / b_pyramid=2 / b_adapt=1 / b_bias=0 / direct=1 / weightb=0 / open_gop=0 / weightp=2 / keyint=250 / keyint_min=25 / scenecut=40 / intra_refresh=0 / rc_lookahead=40 / rc=abr / mbtree=1 / bitrate=670 / ratetol=1.0 / qcomp=0.60 / qpmin=3 / qpmax=51 / qpstep=4 / ip_ratio=1.40 / aq=1:1.00Language : EnglishColor primaries : BT.709-5, BT.1361, IEC 61966-2-4, SMPTE RP177Transfer characteristics : BT.709-5, BT.1361Matrix coefficients : BT.709-5, BT.1361, IEC 61966-2-4 709, SMPTE RP177
    Audio
    ID : 2
    Format : AAC
    Format/Info : Advanced Audio Codec
    Format profile : LC
    Codec ID : A_AAC
    Duration : 2h 12mn
    Channel(s) : 2 channels
    Channel positions : Front: L R
    Sampling rate : 44.1 KHz
    Compression mode : Lossy
    Title : FUNDOWNLOADER
    Language : Hindi
    Text
    ID : 3
    Format : UTF-8
    Codec ID : S_TEXT/UTF8
    Codec ID/Info : UTF-8 Plain Text
    Title : FUNDOWNLOADER


    THE MATRIX REVOLUTIONS


    Format : Matroska
    File size : 607 MiB
    Duration : 2h 3mn
    Overall bit rate : 685 Kbps
    Movie name : The Matrix Revolutions 2003 720P BRrip HINDI DUBBED by FUNDOWNLOADER EXDE$
    Encoded date : UTC 2011-06-10 16:09:11
    Writing application : mkvmerge v4.6.0 ('Still Crazy After All These Years') built on Mar 10 2011 02:50:32
    Writing library : libebml v1.2.0 + libmatroska v1.1.0

    Video
    ID : 1
    Format : AVC
    Format/Info : Advanced Video Codec
    Format profile : Main****************L3.1
    Format settings, CABAC : Yes
    Format settings, ReFrames : 4 frames
    Muxing mode : Header stripping
    Codec ID : V_MPEG4/ISO/AVC
    Duration : 2h 3mn
    Nominal bit rate : 626 Kbps
    Width : 1 280 pixels
    Height : 528 pixels

    Display aspect ratio : 2.40:1
    Frame rate mode : Variable
    Frame rate : 25.000 fps
    Color space : YUV
    Chroma subsampling : 4:2:0
    Bit depth : 8 bits
    Scan type : Progressive
    Bits/(Pixel*Frame) : 0.037
    Title : FUNDOWNLOADER
    Writing library : x264 core 112
    Encoding settings : cabac=1 / ref=2 / deblock=1:0:0 / analyse=0x1:0x111 / me=hex / subme=6 / psy=1 / psy_rd=1.00:0.00 / mixed_ref=0 / me_range=16 / chroma_me=1 / trellis=0 / 8x8dct=0 / cqm=0 / deadzone=21,11 / fast_pskip=1 / chroma_qp_offset=-2 / threads=3 / sliced_threads=0 / nr=0 / decimate=1 / interlaced=0 / constrained_intra=0 / bframes=2 / b_pyramid=2 / b_adapt=1 / b_bias=0 / direct=1 / weightb=0 / open_gop=0 / weightp=2 / keyint=250 / keyint_min=25 / scenecut=40 / intra_refresh=0 / rc_lookahead=40 / rc=abr / mbtree=1 / bitrate=626 / ratetol=1.0 / qcomp=0.60 / qpmin=3 / qpmax=51 / qpstep=4 / ip_ratio=1.40 / aq=1:1.00
    Language : English
    Color primaries : BT.709-5, BT.1361, IEC 61966-2-4, SMPTE RP177
    Transfer characteristics : BT.709-5, BT.1361
    Matrix coefficients : BT.709-5, BT.1361, IEC 61966-2-4 709, SMPTE RP177

    Audio
    ID : 2
    Format : AAC
    Format/Info : Advanced Audio Codec
    Format profile : LC
    Codec ID : A_AAC
    Duration : 2h 3mn
    Channel(s) : 2 channels
    Channel positions : Front: L R
    Sampling rate : 44.1 KHz
    Compression mode : Lossy
    Title : FUNDOWNLOADER
    Language : Hindi

    Text
    ID : 3
    Format : UTF-8
    Codec ID : S_TEXT/UTF8
    Codec ID/Info : UTF-8 Plain Text
    Title : FUNDOWNLOADER
    Language : English

    SCREENSHOTS
















    ~*Downloads*~

    The Matrix 1999 720P BRRip Hindi

    Fileserve

    Code:
    http://www.fileserve.com/file/DSXtG9H
    Wupload

    Code:
    http://www.wupload.com/file/21151223/The_Matrix_1999_720P_BRRip_Hindi_by_FUNDOWNLOADER_EXDE$.mkv
    The Matrix Reloaded 2003 Hindi

    Fileserve

    Code:
    http://www.fileserve.com/file/TfGxmNY
    Wupload

    Code:
    http://www.wupload.com/file/21150839/The_Matrix_Reloaded_2003_Hindi_Brip_by_FUNDOWNLOADER_EXDE$.mkv
    THE MATRIX REVOLUTIONS

    Fileserve

    Code:
    http://www.fileserve.com/file/j8bGdBQ
    Wupload

    Code:
    http://www.wupload.com/file/21150944/The_Matrix_Revolutions_2003_720P_BRrip_HINDI_DUBBED_by_FUNDOWNLOADER_EXDE$.mkv



 

 

Posting Permissions

  • You may not post new threads
  • You may not post replies
  • You may not post attachments
  • You may not edit your posts
  •