Results 1 to 1 of 1
  1. #1
    shawn rebecca
    Guest

    Default UFC 131 Post fight Press Conference x264 MOUZAM

    Follow us on Social Media







    UFC 131 Post fight Press Conference x264 MOUZAM




    Format : MPEG-4
    Format profile : Base Media / Version 2
    Codec ID : mp42
    File size : 161 MiB
    Duration : 41mn 21s
    Overall bit rate : 546 Kbps
    Encoded date : UTC 2011-06-11 07:04:27
    Tagged date : UTC 2011-06-11 07:04:27
    gsst : 0
    gstd : 2481238
    gssd : B4A7DDA08HH1307871833512761
    gshh : v8.cache1.c.youtube.com

    Video
    ID : 1
    Format : AVC
    Format/Info : Advanced Video Codec
    Format profile : [email protected]
    Format settings, CABAC : No
    Format settings, ReFrames : 1 frame
    Format settings, GOP : M=1, N=60
    Codec ID : avc1
    Codec ID/Info : Advanced Video Coding
    Duration : 41mn 21s
    Bit rate mode : Variable
    Bit rate : 444 Kbps
    Maximum bit rate : 1 082 Kbps
    Width : 640 pixels
    Height : 360 pixels
    Display aspect ratio : 16:9
    Frame rate mode : Variable
    Frame rate : 29.970 fps
    Minimum frame rate : 29.412 fps
    Maximum frame rate : 200.000 fps
    Color space : YUV
    Chroma subsampling : 4:2:0
    Bit depth : 8 bits
    Scan type : Progressive
    Bits/(Pixel*Frame) : 0.064
    Stream size : 131 MiB (81%)
    Tagged date : UTC 2011-06-11 07:05:30

    Audio
    ID : 2
    Format : AAC
    Format/Info : Advanced Audio Codec
    Format profile : LC
    Codec ID : 40
    Duration : 41mn 21s
    Bit rate mode : Variable
    Bit rate : 96.0 Kbps
    Maximum bit rate : 122 Kbps
    Channel(s) : 2 channels
    Channel positions : Front: L R
    Sampling rate : 44.1 KHz
    Compression mode : Lossy
    Stream size : 28.4 MiB (18%)
    Title : IsoMedia File Produced by Google, 5-11-2011
    Encoded date : UTC 2011-06-11 07:04:50
    Tagged date : UTC 2011-06-11 07:05:30
    Code:
    http://www.fileserve.com/file/JFFXDrG/UFC.131.Post.fight.Press.Conference.x264.Mouzamdx2.mp4
    Code:
    http://www.filesonic.com/file/1201128954/UFC.131.Post.fight.Press.Conference.x264.Mouzamdx2.mp4

 

 

Posting Permissions

  • You may not post new threads
  • You may not post replies
  • You may not post attachments
  • You may not edit your posts
  •