Results 1 to 2 of 2
  1. #1
    Banned www.desirulez.net
    Join Date
    Apr 2011
    Posts
    100

    T

    Post Madhuri Top Songs - Dvdrip - X264 - snaink - {DUS}

    Follow us on Social Media












    Madhuri Top Songs

    ************************************************** ***********************
    Madhuri Top Songs - Dvdrip - X264 - snaink - DUS
    ************************************************** ***********************






    Code:
    Ripper                           : snaink
    Source                           : Own DVD 9
    
    General
    
    Format                           : Matroska
    File size                        : 1.95 GiB
    Duration                         : 5h 55mn
    Overall bit rate                 : 787 Kbps
    
    Video
    Format                           : AVC
    Format/Info                      : Advanced Video Codec
    Format profile                   : [email protected]
    Format settings, CABAC           : Yes
    Format settings, ReFrames        : 3 frames
    Muxing mode                      : Container [email protected]
    Codec ID                         : V_MPEG4/ISO/AVC
    Duration                         : 5h 55mn
    Bit rate                         : 579 Kbps
    Nominal bit rate                 : 593 Kbps
    Width                            : 688 pixels
    Height                           : 336 pixels
    Display aspect ratio             : 2.048
    Frame rate                       : 23.976 fps
    Resolution                       : 8 bits
    Colorimetry                      : 4:2:0
    Scan type                        : Progressive
    Bits/(Pixel*Frame)               : 0.104
    Stream size                      : 1.44 GiB (74%)
    Writing library                  : x264 core 80 r1376M 3feaec2
    
    Audio
    Format                           : AC-3
    Format/Info                      : Audio Coding 3
    Codec ID                         : A_AC3
    Duration                         : 5h 55mn
    Bit rate mode                    : Constant
    Bit rate                         : 192 Kbps
    Channel(s)                       : 2 channels
    Channel positions                : L R
    Sampling rate                    : 48.0 KHz
    Stream size                      : 489 MiB (24%)











    Fileserve

    Filesonic

  2. #2
    Banned www.desirulez.net
    Join Date
    Jun 2011
    Posts
    229

    T

    Default

    Thanksssssss

 

 

Posting Permissions

  • You may not post new threads
  • You may not post replies
  • You may not post attachments
  • You may not edit your posts
  •