Results 1 to 1 of 1
  1. #1
    shawn rebecca
    Guest

    Default UFC 131 Extended Preview

    Follow us on Social Media







    UFC 131 Extended Preview



    Format : MPEG-4
    Format profile : Base Media / Version 2
    Codec ID : mp42
    File size : 208 MiB
    Duration : 9mn 41s
    Overall bit rate : 3 004 Kbps
    Encoded date : UTC 2011-06-01 21:42:00
    Tagged date : UTC 2011-06-02 21:54:07
    Writing application : Sorenson Squeeze

    Video
    ID : 2
    Format : AVC
    Format/Info : Advanced Video Codec
    Format profile : [email protected]
    Format settings, CABAC : Yes
    Format settings, ReFrames : 2 frames
    Codec ID : avc1
    Codec ID/Info : Advanced Video Coding
    Duration : 9mn 41s
    Bit rate mode : Constant
    Bit rate : 2 952 Kbps
    Width : 1 280 pixels
    Height : 720 pixels
    Display aspect ratio : 16:9
    Frame rate mode : Variable
    Frame rate : 29.970 fps
    Minimum frame rate : 29.940 fps
    Maximum frame rate : 29.970 fps
    Standard : NTSC
    Color space : YUV
    Chroma subsampling : 4:2:0
    Bit depth : 8 bits
    Scan type : Progressive
    Bits/(Pixel*Frame) : 0.107
    Stream size : 204 MiB (98%)
    Encoded date : UTC 2011-06-01 21:42:00
    Tagged date : UTC 2011-06-01 21:42:00

    Audio
    ID : 1
    Format : AAC
    Format/Info : Advanced Audio Codec
    Format profile : LC
    Codec ID : 40
    Duration : 9mn 41s
    Bit rate mode : Constant
    Bit rate : 48.0 Kbps
    Channel(s) : 1 channel
    Channel positions : Front: C
    Sampling rate : 44.1 KHz
    Compression mode : Lossy
    Stream size : 3.33 MiB (2%)
    Encoded date : UTC 2011-06-01 21:42:00
    Tagged date : UTC 2011-06-01 21:42:00
    Code:
    http://www.filesonic.com/file/1123778494/UFC.131.Extended.Preview.mp4
    Code:
    http://www.fileserve.com/file/RpnN6sF/UFC.131.Extended.Preview.mp4

 

 

Posting Permissions

  • You may not post new threads
  • You may not post replies
  • You may not post attachments
  • You may not edit your posts
  •