Results 1 to 3 of 3
  1. #1
    Senior Member www.desirulez.net
    Join Date
    Dec 2010
    Posts
    104

    T

    Default [Duckload Netload DDL] WWE Friday Night Smackdown 2011 06 03 HDTV x264 350 MB

    Follow us on Social Media









    Code:
    Format                           : Matroska
    File size                        : 381 MiB
    Duration                         : 1h 19mn
    Overall bit rate                 : 667 Kbps
    Encoded date                     : UTC 2011-06-03 13:04:31
    Writing application              : mkvmerge v4.7.0 ('Just Like You Imagined') built on Apr 21 2011 01:13:14
    Writing library                  : libebml v1.2.0 + libmatroska v1.1.0
    
    Video
    ID                               : 1
    Format                           : AVC
    Format/Info                      : Advanced Video Codec
    Format profile                   : [email protected]
    Format settings, CABAC           : Yes
    Format settings, ReFrames        : 2 frames
    Muxing mode                      : Header stripping
    Codec ID                         : V_MPEG4/ISO/AVC
    Duration                         : 1h 19mn
    Bit rate                         : 590 Kbps
    Width                            : 704 pixels
    Height                           : 400 pixels
    Display aspect ratio             : 16:9
    Frame rate                       : 25.000 fps
    Color space                      : YUV
    Chroma subsampling               : 4:2:0
    Bit depth                        : 8 bits
    Scan type                        : Progressive
    Bits/(Pixel*Frame)               : 0.084
    Stream size                      : 337 MiB (88%)
    
    Audio
    ID                               : 2
    Format                           : MPEG Audio
    Format version                   : Version 1
    Format profile                   : Layer 3
    Mode                             : Joint stereo
    Mode extension                   : MS Stereo
    Muxing mode                      : Header stripping
    Codec ID                         : A_MPEG/L3
    Codec ID/Hint                    : MP3
    Duration                         : 1h 19mn
    Bit rate mode                    : Constant
    Bit rate                         : 64.0 Kbps
    Channel(s)                       : 2 channels
    Sampling rate                    : 44.1 KHz
    Compression mode                 : Lossy
    Stream size                      : 36.6 MiB (10%)
    Writing library                  : LAME3.98r
    Encoding settings                : -m j -V 4 -q 2 -lowpass 11 -b 64










    █ NO PASSWORD █ SINGLE LINK

    DoWnLoAd

    &

    Enjoy~

    Duckload DDL

    Code:
    http://www.duckload.com/download/6286040/WWE.Friday.Night.Smackdown.2011.06.03.HDTV.x264.350mb.mkv
    Netload

    Code:
    http://netload.in/dateiKzwVdAgIZU/WWE.Friday.Night.Smackdown.2011.06.03.HDTV.x264.350mb.mkv.htm
    Last edited by simmer; 06-03-2011 at 09:36 PM.

  2. #2
    New Arrivals
    Join Date
    Jun 2011
    Posts
    8

    T

    Default

    Good Job.

  3. #3
    Senior Member www.desirulez.net
    Join Date
    Dec 2010
    Posts
    104

    T

    Default

    no problem enjoy brah

 

 

Posting Permissions

  • You may not post new threads
  • You may not post replies
  • You may not post attachments
  • You may not edit your posts
  •