Results 1 to 1 of 1
  1. #1
    Banned www.desirulez.net
    Join Date
    Apr 2011
    Posts
    10

    T

    Default Kaavalan - (2011) - BDRip - 1080p - Subs - Chapters - x264 - DTS

    Follow us on Social Media







    Code:
    Format                           : Matroska
    File size                        : 7.96 GiB
    Duration                         : 2h 30mn
    Overall bit rate                 : 7 577 Kbps
    Encoded date                     : UTC 2011-05-25 20:50:19
    Writing application              : mkvmerge v4.6.0 ('Still Crazy After All These Years') built on Mar 10 2011 02:50:32
    Writing library                  : libebml v1.2.0 + libmatroska v1.1.0
    
    Video
    ID                               : 1
    Format                           : AVC
    Format/Info                      : Advanced Video Codec
    Duration                         : 2h 30mn
    Bit rate mode                    : Variable
    Bit rate                         : 6 808 Kbps
    Maximum bit rate                 : 15.0 Mbps
    Width                            : 1 920 pixels
    Height                           : 816 pixels
    Display aspect ratio             : 2.35:1
    Frame rate                       : 24.000 fps
    Color space                      : YUV
    Chroma subsampling               : 4:2:0
    Bit depth                        : 8 bits
    Scan type                        : Progressive
    Bits/(Pixel*Frame)               : 0.181
    Stream size                      : 7.01 GiB (88%)
    Language                         : English
    
    Audio
    ID                               : 2
    Format                           : DTS
    Format/Info                      : Digital Theater Systems
    Codec ID                         : A_DTS
    Duration                         : 2h 30mn
    Bit rate mode                    : Constant
    Bit rate                         : 755 Kbps
    Channel(s)                       : 6 channels
    Channel positions                : Front: L C R, Side: L R, LFE
    Sampling rate                    : 48.0 KHz
    Bit depth                        : 24 bits
    Stream size                      : 812 MiB (10%)











    Last edited by Santhos; 06-03-2011 at 07:21 AM.

 

 

Posting Permissions

  • You may not post new threads
  • You may not post replies
  • You may not post attachments
  • You may not edit your posts
  •