Results 1 to 1 of 1
  1. #1
    Super Member www.desirulez.net
    Join Date
    May 2011
    Posts
    240

    T

    Default Khilaaf (1991) - 1.37 GB - 2CD - DVDRIP - XviD - AC3 - XMR

    Follow us on Social Media








    Khilaaf (1991) 2CD XViD 6 Channels AC3 Sound(Original) English Subtitles




    *File Info*

    Quote
    Format : AVI
    Format/Info : Audio Video Interleave
    File size : 1.37 GiB
    Duration : 2h 15mn
    Overall bit rate : 1 449 Kbps
    Writing application : VirtualDubMod 1.5.10.2 (build 2542/release)
    Writing library : VirtualDubMod build 2542/release

    Video
    ID : 0
    Format : MPEG-4 Visual
    Format profile : [email protected]
    Format settings, BVOP : Yes
    Format settings, QPel : Yes
    Format settings, GMC : No warppoints
    Format settings, Matrix : Default (MPEG)
    Codec ID : XVID
    Codec ID/Hint : XviD
    Duration : 2h 15mn
    Bit rate : 992 Kbps
    Width : 640 pixels
    Height : 304 pixels
    Display aspect ratio : 2.2:1
    Frame rate : 23.976 fps
    Resolution : 24 bits
    Colorimetry : 4:2:0
    Scan type : Progressive
    Bits/(Pixel*Frame) : 0.213
    Stream size : 958 MiB (68%)
    Writing library : XviD 1.2.1 (UTC 2008-12-04)

    Audio
    ID : 1
    Format : AC-3
    Format/Info : Audio Coding 3
    Codec ID : 2000
    Duration : 2h 15mn
    Bit rate mode : Constant
    Bit rate : 448 Kbps
    Channel(s) : 6 channels
    Channel positions : Front: L C R, Surround: L R, LFE
    Sampling rate : 48.0 KHz
    Stream size : 433 MiB (31%)
    Alignment : Split accross interleaves
    Interleave, duration : 42 ms (1.00 video frame)
    Interleave, preload duration : 500 ms



    Ripper Myself(Ajit)
    Source [email protected](Thanx!)
    Subs English(Manually corrected)

    *Movie Info*

    Khilaaf (1991) - IMDb

    *Screenshots*












    SINGLE LINK:-
    Code:
    http://www.uploadstation.com/file/gyTvNGh/Khilaaf_2CD_XViD.avi
    You are Allowed to Share My Post and My Links anywhere you want 2

 

 

Posting Permissions

  • You may not post new threads
  • You may not post replies
  • You may not post attachments
  • You may not edit your posts
  •